<?xml version="1.0" standalone="no"?>
<!DOCTYPE svg PUBLIC "-//W3C//DTD SVG 1.1//EN" "http://www.w3.org/Graphics/SVG/1.1/DTD/svg11.dtd" >
<svg xmlns="http://www.w3.org/2000/svg" xmlns:xlink="http://www.w3.org/1999/xlink" version="1.1">
<metadata>
Created by FontForge 20190801 at Fri Dec  9 13:23:42 2005
 By root
Copyright (c) Mark Simonson, 2005. All rights reserved.
</metadata>
<defs>
<font id="ProximaNova-Bold" horiz-adv-x="398" >
  <font-face 
    font-family="Proxima Nova Rg"
    font-weight="700"
    font-stretch="normal"
    units-per-em="1000"
    panose-1="2 0 5 6 3 0 0 2 0 4"
    ascent="790"
    descent="-210"
    x-height="483"
    cap-height="667"
    bbox="-172 -288 1147 903"
    underline-thickness="20"
    underline-position="-133"
    stemh="21"
    stemv="146"
    unicode-range="U+0020-FB04"
  />
<missing-glyph horiz-adv-x="483" 
d="M417 -90h-351v842h351v-842zM385 -60v782h-288v-782h288z" />
    <glyph glyph-name="fi" unicode="fi" horiz-adv-x="580" 
d="M219 0h-127v372h-80v111h80v20c0 113 69 174 162 174c37 0 69 -8 92 -20l-26 -94c-10 7 -24 10 -41 10c-36 0 -60 -23 -60 -70v-20h98v-111h-98v-372zM453 535c-41 0 -75 34 -75 76s34 75 75 75c42 0 76 -33 76 -75s-34 -76 -76 -76zM517 0h-127v483h127v-483z" />
    <glyph glyph-name="fl" unicode="fl" horiz-adv-x="580" 
d="M219 0h-127v372h-80v111h80v20c0 113 69 174 162 174c37 0 69 -8 92 -20l-26 -94c-10 7 -24 10 -41 10c-36 0 -60 -23 -60 -70v-20h98v-111h-98v-372zM517 0h-127v667h127v-667z" />
    <glyph glyph-name="f_b" unicode="fb" horiz-adv-x="913" 
d="M219 0h-127v372h-80v111h80v20c0 113 69 174 162 174c37 0 69 -8 92 -20l-26 -94c-10 7 -24 10 -41 10c-36 0 -60 -23 -60 -70v-20h98v-111h-98v-372zM517 155c22 -31 68 -54 110 -54c73 0 122 57 122 141c0 83 -49 140 -122 140c-42 0 -88 -24 -110 -56v-171zM517 0
h-127v667h127v-246c38 50 92 74 149 74c123 0 214 -96 214 -253c0 -162 -92 -254 -214 -254c-58 0 -111 26 -149 74v-62z" />
    <glyph glyph-name="f_h" unicode="fh" horiz-adv-x="907" 
d="M219 0h-127v372h-80v111h80v20c0 113 69 174 162 174c37 0 69 -8 92 -20l-26 -94c-10 7 -24 10 -41 10c-36 0 -60 -23 -60 -70v-20h98v-111h-98v-372zM844 0h-127v294c0 67 -35 88 -89 88c-50 0 -89 -28 -110 -56v-326h-128v667h128v-246c31 36 90 74 169 74
c106 0 157 -58 157 -152v-343z" />
    <glyph glyph-name="f_k" unicode="fk" horiz-adv-x="863" 
d="M219 0h-127v372h-80v111h80v20c0 113 69 174 162 174c37 0 69 -8 92 -20l-26 -94c-10 7 -24 10 -41 10c-36 0 -60 -23 -60 -70v-20h98v-111h-98v-372zM862 0h-159l-128 186l-58 -62v-124h-127v667h127v-399l183 215h156l-191 -219z" />
    <glyph glyph-name="f_f_j" unicode="ffj" horiz-adv-x="907" 
d="M219 0h-127v372h-80v111h80v20c0 109 65 174 162 174c47 0 97 -13 126 -46l-48 -77c-13 12 -30 19 -53 19c-36 0 -60 -23 -60 -70v-20h98v-111h-98v-372zM546 0h-127v372h-80v111h80v20c0 113 69 174 162 174c37 0 69 -8 92 -20l-26 -94c-10 7 -24 10 -41 10
c-36 0 -60 -23 -60 -70v-20h98v-111h-98v-372zM781 535c-41 0 -75 34 -75 76s34 75 75 75c42 0 76 -33 76 -75s-34 -76 -76 -76zM673 -196c-61 0 -85 10 -120 35l34 94c19 -16 36 -25 65 -25c39 0 66 25 66 79v496h127v-496c0 -110 -56 -183 -172 -183z" />
    <glyph glyph-name="f_j" unicode="fj" horiz-adv-x="580" 
d="M219 0h-127v372h-80v111h80v20c0 113 69 174 162 174c37 0 69 -8 92 -20l-26 -94c-10 7 -24 10 -41 10c-36 0 -60 -23 -60 -70v-20h98v-111h-98v-372zM453 535c-41 0 -75 34 -75 76s34 75 75 75c42 0 76 -33 76 -75s-34 -76 -76 -76zM345 -196c-61 0 -85 10 -120 35
l34 94c19 -16 36 -25 65 -25c39 0 66 25 66 79v496h127v-496c0 -110 -56 -183 -172 -183z" />
    <glyph glyph-name="f_f" unicode="ff" horiz-adv-x="655" 
d="M219 0h-127v372h-80v111h80v20c0 109 65 174 162 174c47 0 97 -13 126 -46l-48 -77c-13 12 -30 19 -53 19c-36 0 -60 -23 -60 -70v-20h98v-111h-98v-372zM546 0h-127v372h-80v111h80v20c0 109 65 174 162 174c47 0 97 -13 126 -46l-48 -77c-13 12 -30 19 -53 19
c-36 0 -60 -23 -60 -70v-20h98v-111h-98v-372z" />
    <glyph glyph-name="f_f_i" unicode="ffi" horiz-adv-x="907" 
d="M219 0h-127v372h-80v111h80v20c0 109 65 174 162 174c47 0 97 -13 126 -46l-48 -77c-13 12 -30 19 -53 19c-36 0 -60 -23 -60 -70v-20h98v-111h-98v-372zM546 0h-127v372h-80v111h80v20c0 113 69 174 162 174c37 0 69 -8 92 -20l-26 -94c-10 7 -24 10 -41 10
c-36 0 -60 -23 -60 -70v-20h98v-111h-98v-372zM781 535c-41 0 -75 34 -75 76s34 75 75 75c42 0 76 -33 76 -75s-34 -76 -76 -76zM845 0h-127v483h127v-483z" />
    <glyph glyph-name="f_f_l" unicode="ffl" horiz-adv-x="907" 
d="M219 0h-127v372h-80v111h80v20c0 109 65 174 162 174c47 0 97 -13 126 -46l-48 -77c-13 12 -30 19 -53 19c-36 0 -60 -23 -60 -70v-20h98v-111h-98v-372zM546 0h-127v372h-80v111h80v20c0 113 69 174 162 174c37 0 69 -8 92 -20l-26 -94c-10 7 -24 10 -41 10
c-36 0 -60 -23 -60 -70v-20h98v-111h-98v-372zM845 0h-127v667h127v-667z" />
    <glyph glyph-name=".notdef" horiz-adv-x="483" 
d="M417 -90h-351v842h351v-842zM385 -60v782h-288v-782h288z" />
    <glyph glyph-name="space" unicode=" " horiz-adv-x="257" 
 />
    <glyph glyph-name="exclam" unicode="!" horiz-adv-x="255" 
d="M184 218h-112l-21 449h153zM128 -10c-44 0 -80 37 -80 80c0 44 36 81 80 81s81 -37 81 -81c0 -43 -37 -80 -81 -80z" />
    <glyph glyph-name="quotedbl" unicode="&#x22;" horiz-adv-x="406" 
d="M141 375h-56s-41 214 -41 233c0 38 31 69 69 69c37 0 69 -31 69 -69c0 -19 -41 -233 -41 -233zM322 375h-56s-41 214 -41 233c0 38 31 69 69 69s69 -31 69 -69c0 -19 -41 -233 -41 -233z" />
    <glyph glyph-name="numbersign" unicode="#" horiz-adv-x="618" 
d="M339 0h-95l58 170h-95l-57 -170h-94l57 170h-96l26 81h98l54 165h-97l25 80h100l56 171h94l-56 -171h94l56 171h95l-58 -171h97l-23 -80h-101l-55 -165h101l-25 -81h-103zM328 251l55 165h-94l-54 -165h93z" />
    <glyph glyph-name="dollar" unicode="$" horiz-adv-x="614" 
d="M267 -100v90c-105 9 -182 49 -237 104l78 111c37 -39 92 -74 159 -86v155c-103 25 -215 64 -215 200c0 101 80 187 215 201v93h94v-95c81 -9 150 -39 204 -89l-79 -106c-36 33 -80 54 -125 65v-138c104 -26 220 -66 220 -203c0 -111 -73 -197 -220 -212v-90h-94zM436 188
c0 33 -31 49 -75 63v-134c51 10 75 39 75 71zM198 485c0 -29 28 -44 69 -57v121c-44 -6 -69 -30 -69 -64z" />
    <glyph glyph-name="percent" unicode="%" horiz-adv-x="758" 
d="M195 345c-102 0 -169 72 -169 165c0 94 67 167 169 167c103 0 170 -73 170 -167c0 -93 -67 -165 -170 -165zM205 0h-75l426 667h76zM562 -12c-102 0 -169 72 -169 165c0 94 67 168 169 168s170 -74 170 -168c0 -93 -68 -165 -170 -165zM195 423c46 0 80 34 80 87
c0 55 -34 89 -80 89c-45 0 -79 -34 -79 -89c0 -53 34 -87 79 -87zM562 66c46 0 80 33 80 87c0 55 -34 89 -80 89s-79 -34 -79 -89c0 -54 33 -87 79 -87z" />
    <glyph glyph-name="ampersand" unicode="&#x26;" horiz-adv-x="647" 
d="M638 0h-162c-14 13 -31 30 -50 50c-50 -38 -111 -62 -182 -62c-122 0 -220 64 -220 193c0 101 67 154 144 193c-27 49 -44 98 -44 143c0 90 79 160 190 160c94 0 175 -51 175 -141c0 -102 -81 -145 -163 -183c20 -27 40 -52 57 -72c19 -24 38 -47 57 -69
c28 44 49 91 61 130l101 -47c-24 -53 -54 -110 -93 -160c40 -44 83 -88 129 -135zM262 88c34 0 67 13 96 34c-30 33 -58 65 -74 85c-22 27 -46 57 -67 88c-35 -25 -58 -56 -58 -102c0 -65 48 -105 103 -105zM250 514c0 -27 11 -58 29 -90c56 27 100 56 100 105
c0 35 -26 56 -59 56c-39 0 -70 -29 -70 -71z" />
    <glyph glyph-name="quoteright" unicode="&#x2019;" horiz-adv-x="255" 
d="M215 575c0 -75 -41 -142 -103 -186l-55 45c32 17 69 59 77 95c-3 -2 -11 -3 -19 -3c-38 0 -68 29 -68 72s36 79 79 79c47 0 89 -37 89 -102z" />
    <glyph glyph-name="parenleft" unicode="(" horiz-adv-x="297" 
d="M279 -137l-79 -62c-98 109 -159 281 -159 442s61 333 159 442l79 -60c-67 -122 -101 -232 -101 -382c0 -149 34 -260 101 -380z" />
    <glyph glyph-name="parenright" unicode=")" horiz-adv-x="298" 
d="M18 -137l79 -62c98 109 160 281 160 442s-62 333 -160 442l-79 -60c68 -122 101 -232 101 -382c0 -149 -33 -260 -101 -380z" />
    <glyph glyph-name="asterisk" unicode="*" horiz-adv-x="351" 
d="M207 366h-63l5 110l-92 -59l-32 54l97 51l-97 50l32 54l92 -59l-5 110h63l-5 -110l92 59l32 -54l-97 -50l97 -51l-32 -54l-92 59z" />
    <glyph glyph-name="plus" unicode="+" horiz-adv-x="504" 
d="M475 298h-179v-203h-87v203h-180v79h180v196h87v-196h179v-79z" />
    <glyph glyph-name="comma" unicode="," horiz-adv-x="255" 
d="M215 49c0 -75 -41 -142 -103 -186l-55 45c32 17 69 59 77 94c-3 -1 -11 -3 -19 -3c-38 0 -68 30 -68 72c0 44 36 80 79 80c47 0 89 -37 89 -102z" />
    <glyph glyph-name="hyphen" unicode="-" horiz-adv-x="300" 
d="M270 188h-240v108h240v-108z" />
    <glyph glyph-name="period" unicode="." horiz-adv-x="257" 
d="M128 -11c-44 0 -81 37 -81 81s37 81 81 81s81 -37 81 -81s-37 -81 -81 -81z" />
    <glyph glyph-name="slash" unicode="/" horiz-adv-x="329" 
d="M92 -20h-92l237 707h92z" />
    <glyph glyph-name="zero" unicode="0" horiz-adv-x="620" 
d="M310 -12c-191 0 -276 173 -276 345s85 344 276 344s276 -172 276 -344s-85 -345 -276 -345zM310 114c95 0 131 96 131 219s-35 218 -131 218c-95 0 -131 -95 -131 -218s36 -219 131 -219z" />
    <glyph glyph-name="one" unicode="1" horiz-adv-x="411" 
d="M345 0h-142v484l-111 -113l-81 85l210 211h124v-667z" />
    <glyph glyph-name="two" unicode="2" horiz-adv-x="600" 
d="M549 0h-502v112c273 202 353 270 353 352c0 59 -53 87 -108 87c-76 0 -134 -30 -179 -77l-81 94c65 75 164 109 257 109c143 0 255 -80 255 -213c0 -114 -94 -213 -267 -339h272v-125z" />
    <glyph glyph-name="three" unicode="3" horiz-adv-x="587" 
d="M283 -12c-122 0 -214 47 -263 107l75 95c45 -48 118 -76 183 -76c81 0 126 35 126 85c0 53 -41 77 -134 77c-28 0 -73 -1 -83 -2v128c12 -1 58 -1 83 -1c74 0 124 22 124 71c0 53 -55 79 -124 79c-65 0 -123 -24 -170 -69l-71 89c54 61 138 106 255 106
c156 0 252 -70 252 -181c0 -84 -72 -139 -146 -152c68 -7 156 -60 156 -160c0 -115 -103 -196 -263 -196z" />
    <glyph glyph-name="four" unicode="4" horiz-adv-x="597" 
d="M486 0h-142v138h-319v112l265 417h196v-404h86v-125h-86v-138zM344 263v278l-180 -278h180z" />
    <glyph glyph-name="five" unicode="5" horiz-adv-x="608" 
d="M306 -12c-116 0 -200 38 -257 100l79 99c45 -47 107 -73 177 -73c79 0 124 45 124 99c0 59 -44 99 -120 99c-55 0 -100 -16 -140 -54l-99 27v382h458v-125h-316v-163c32 32 86 56 147 56c113 0 214 -81 214 -216c0 -141 -106 -231 -267 -231z" />
    <glyph glyph-name="six" unicode="6" horiz-adv-x="608" 
d="M322 -12c-203 0 -288 156 -288 344c0 202 114 345 311 345c81 0 149 -27 197 -69l-64 -109c-36 34 -74 52 -133 52c-98 0 -167 -83 -167 -189c0 -5 0 -9 1 -14c31 45 98 86 171 86c120 0 228 -75 228 -217c0 -130 -104 -229 -256 -229zM314 114c77 0 119 52 119 98
c0 70 -60 100 -123 100c-50 0 -99 -23 -131 -63c6 -64 42 -135 135 -135z" />
    <glyph glyph-name="seven" unicode="7" horiz-adv-x="545" 
d="M277 0h-156l239 542h-336v125h501v-99z" />
    <glyph glyph-name="eight" unicode="8" horiz-adv-x="606" 
d="M303 -12c-140 0 -268 61 -268 185c0 81 63 143 143 171c-74 26 -132 74 -132 157c0 126 133 176 257 176c123 0 257 -50 257 -176c0 -83 -59 -131 -132 -157c79 -28 143 -90 143 -171c0 -124 -128 -185 -268 -185zM303 400c41 7 112 28 112 77c0 47 -47 74 -112 74
c-66 0 -113 -27 -113 -74c0 -49 72 -70 113 -77zM303 114c68 0 124 31 124 79c0 55 -83 81 -124 87c-42 -6 -124 -32 -124 -87c0 -48 54 -79 124 -79z" />
    <glyph glyph-name="nine" unicode="9" horiz-adv-x="608" 
d="M263 -11c-81 0 -149 27 -196 69l63 109c36 -34 74 -52 133 -52c110 0 167 93 167 188v15c-32 -45 -99 -86 -172 -86c-120 0 -227 75 -227 217c0 130 103 229 255 229c203 0 288 -156 288 -344c0 -202 -114 -345 -311 -345zM298 354c51 0 99 23 131 63
c-6 64 -42 135 -135 135c-77 0 -119 -52 -119 -98c0 -70 61 -100 123 -100z" />
    <glyph glyph-name="colon" unicode=":" horiz-adv-x="246" 
d="M128 328c-44 0 -81 37 -81 81s37 81 81 81s81 -37 81 -81s-37 -81 -81 -81zM128 -11c-44 0 -81 37 -81 81s37 81 81 81s81 -37 81 -81s-37 -81 -81 -81z" />
    <glyph glyph-name="semicolon" unicode=";" horiz-adv-x="255" 
d="M128 328c-44 0 -81 38 -81 82s37 80 81 80s81 -36 81 -80s-37 -82 -81 -82zM215 52c0 -74 -41 -141 -103 -185l-55 45c32 17 69 59 77 94c-3 -1 -11 -3 -19 -3c-38 0 -68 30 -68 72c0 44 36 80 79 80c47 0 89 -37 89 -103z" />
    <glyph glyph-name="less" unicode="&#x3c;" horiz-adv-x="504" 
d="M475 90l-446 199v92l446 199v-94l-355 -152l355 -150v-94z" />
    <glyph glyph-name="equal" unicode="=" horiz-adv-x="504" 
d="M475 389h-446v79h446v-79zM475 201h-446v78h446v-78z" />
    <glyph glyph-name="greater" unicode="&#x3e;" horiz-adv-x="504" 
d="M475 289l-446 -199v94l355 150l-355 152v94l446 -199v-92z" />
    <glyph glyph-name="question" unicode="?" horiz-adv-x="456" 
d="M178 204c-21 23 -33 54 -33 89c0 118 147 132 147 201c0 31 -24 57 -79 57c-50 0 -92 -24 -123 -62l-81 91c53 63 133 97 219 97c129 0 208 -65 208 -158c0 -146 -167 -157 -167 -241c0 -16 8 -33 19 -42zM226 -11c-44 0 -81 37 -81 81s37 81 81 81s81 -37 81 -81
s-37 -81 -81 -81z" />
    <glyph glyph-name="at" unicode="@" horiz-adv-x="783" 
d="M352 -70c-182 0 -317 137 -317 314c0 213 189 394 397 394c192 0 315 -139 315 -306c0 -168 -111 -247 -198 -247c-60 0 -90 36 -97 74l-1 6c-35 -49 -90 -80 -144 -80c-97 0 -155 71 -155 168c0 134 110 245 226 245c61 0 104 -29 125 -67l11 53h113l-51 -244
c-1 -5 -3 -18 -3 -24c0 -31 16 -45 37 -45c39 0 94 47 94 161c0 158 -107 267 -276 267c-189 0 -353 -166 -353 -353c0 -157 119 -278 282 -278c67 0 128 21 182 55l21 -30c-62 -40 -134 -63 -208 -63zM351 175c53 0 89 35 111 66l25 116c-10 22 -36 51 -81 51
c-80 0 -137 -72 -137 -145c0 -52 31 -88 82 -88z" />
    <glyph glyph-name="A" unicode="A" horiz-adv-x="684" 
d="M688 0h-161l-42 113h-286l-42 -113h-161l257 667h178zM446 238l-104 287l-104 -287h208z" />
    <glyph glyph-name="B" unicode="B" horiz-adv-x="663" 
d="M428 0h-362v667h351c127 0 192 -81 192 -170c0 -83 -52 -140 -115 -153c72 -11 128 -80 128 -163c0 -101 -66 -181 -194 -181zM386 402c48 0 78 27 78 70c0 41 -30 70 -78 70h-178v-140h178zM392 125c53 0 85 28 85 76c0 42 -30 76 -85 76h-184v-152h184z" />
    <glyph glyph-name="C" unicode="C" horiz-adv-x="687" 
d="M390 -12c-201 0 -356 140 -356 345c0 206 155 345 356 345c146 0 231 -79 278 -163l-122 -60c-28 54 -88 97 -156 97c-122 0 -210 -93 -210 -219s88 -219 210 -219c68 0 128 43 156 97l122 -59c-47 -83 -132 -164 -278 -164z" />
    <glyph glyph-name="D" unicode="D" horiz-adv-x="718" 
d="M330 0h-264v667h263c209 0 354 -133 354 -333c0 -202 -145 -334 -353 -334zM329 125c132 0 209 95 209 209c0 117 -72 208 -208 208h-122v-417h121z" />
    <glyph glyph-name="E" unicode="E" horiz-adv-x="583" 
d="M538 0h-472v667h472v-125h-330v-140h323v-125h-323v-152h330v-125z" />
    <glyph glyph-name="F" unicode="F" horiz-adv-x="571" 
d="M208 0h-142v667h472v-125h-330v-140h323v-125h-323v-277z" />
    <glyph glyph-name="G" unicode="G" horiz-adv-x="720" 
d="M390 -12c-196 0 -356 135 -356 345c0 211 160 345 356 345c138 0 225 -70 275 -149l-117 -64c-31 47 -88 87 -158 87c-122 0 -210 -93 -210 -219s88 -219 210 -219c59 0 114 26 141 51v80h-176v124h318v-256c-68 -76 -163 -125 -283 -125z" />
    <glyph glyph-name="H" unicode="H" horiz-adv-x="731" 
d="M666 0h-143v281h-315v-281h-142v667h142v-262h315v262h143v-667z" />
    <glyph glyph-name="I" unicode="I" horiz-adv-x="274" 
d="M208 0h-142v667h142v-667z" />
    <glyph glyph-name="J" unicode="J" horiz-adv-x="486" 
d="M186 -12c-68 0 -132 19 -180 66l62 108c26 -25 60 -48 106 -48c63 0 104 43 104 107v446h143v-448c0 -157 -99 -231 -235 -231z" />
    <glyph glyph-name="K" unicode="K" horiz-adv-x="636" 
d="M637 0h-175l-202 268l-52 -63v-205h-142v667h142v-297l236 297h175l-265 -313z" />
    <glyph glyph-name="L" unicode="L" horiz-adv-x="515" 
d="M485 0h-425v667h143v-542h282v-125z" />
    <glyph glyph-name="M" unicode="M" horiz-adv-x="855" 
d="M789 0h-143v481l-188 -481h-62l-188 481v-481h-142v667h199l162 -417l162 417h200v-667z" />
    <glyph glyph-name="N" unicode="N" horiz-adv-x="729" 
d="M663 0h-137l-318 435v-435h-142v667h146l309 -419v419h142v-667z" />
    <glyph glyph-name="O" unicode="O" horiz-adv-x="765" 
d="M383 -12c-202 0 -349 144 -349 345s147 345 349 345c201 0 348 -144 348 -345s-147 -345 -348 -345zM383 114c123 0 202 95 202 219c0 125 -79 219 -202 219c-124 0 -203 -94 -203 -219c0 -124 79 -219 203 -219z" />
    <glyph glyph-name="P" unicode="P" horiz-adv-x="625" 
d="M208 0h-142v667h312c145 0 224 -98 224 -215c0 -116 -80 -214 -224 -214h-170v-238zM358 363c56 0 99 34 99 89c0 56 -43 90 -99 90h-150v-179h150z" />
    <glyph glyph-name="Q" unicode="Q" horiz-adv-x="765" 
d="M383 -12c-202 0 -349 144 -349 345s147 345 349 345c201 0 348 -144 348 -345c0 -94 -33 -176 -87 -236l49 -57l-99 -81l-54 62c-46 -21 -100 -33 -157 -33zM383 114c25 0 48 4 69 11l-73 86l99 81l73 -86c22 35 34 79 34 127c0 125 -79 219 -202 219
c-124 0 -203 -94 -203 -219c0 -124 79 -219 203 -219z" />
    <glyph glyph-name="R" unicode="R" horiz-adv-x="643" 
d="M607 0h-164l-131 237h-104v-237h-142v667h312c139 0 225 -91 225 -215c0 -117 -75 -181 -147 -198zM358 362c56 0 99 34 99 91c0 55 -43 89 -99 89h-150v-180h150z" />
    <glyph glyph-name="S" unicode="S" horiz-adv-x="600" 
d="M304 -12c-129 0 -221 43 -284 106l78 111c47 -49 120 -91 212 -91c79 0 116 35 116 74c0 116 -384 35 -384 286c0 111 96 203 253 203c106 0 194 -32 260 -93l-79 -106c-54 50 -126 73 -194 73c-60 0 -94 -26 -94 -66c0 -105 383 -34 383 -283c0 -122 -88 -214 -267 -214
z" />
    <glyph glyph-name="T" unicode="T" horiz-adv-x="582" 
d="M363 0h-143v542h-195v125h532v-125h-194v-542z" />
    <glyph glyph-name="U" unicode="U" horiz-adv-x="734" 
d="M367 -12c-203 0 -301 114 -301 279v400h144v-396c0 -93 54 -157 157 -157s156 64 156 157v396h145v-400c0 -165 -98 -279 -301 -279z" />
    <glyph glyph-name="V" unicode="V" horiz-adv-x="684" 
d="M431 0h-178l-257 667h161l185 -512l185 512h161z" />
    <glyph glyph-name="W" unicode="W" horiz-adv-x="918" 
d="M727 0h-151l-117 458l-116 -458h-151l-191 667h159l117 -482l127 482h111l126 -482l117 482h159z" />
    <glyph glyph-name="X" unicode="X" horiz-adv-x="668" 
d="M671 0h-170l-167 244l-168 -244h-169l242 342l-227 325h169l153 -228l151 228h171l-227 -324z" />
    <glyph glyph-name="Y" unicode="Y" horiz-adv-x="645" 
d="M394 0h-142v273l-256 394h162l165 -267l165 267h161l-255 -394v-273z" />
    <glyph glyph-name="Z" unicode="Z" horiz-adv-x="592" 
d="M550 0h-508v115l315 427h-315v125h501v-114l-315 -428h322v-125z" />
    <glyph glyph-name="bracketleft" unicode="[" horiz-adv-x="280" 
d="M263 -190h-216v868h216v-85h-124v-698h124v-85z" />
    <glyph glyph-name="backslash" unicode="\" horiz-adv-x="329" 
d="M237 -20l-237 707h92l237 -707h-92z" />
    <glyph glyph-name="bracketright" unicode="]" horiz-adv-x="280" 
d="M233 -190h-215v85h124v698h-124v85h215v-868z" />
    <glyph glyph-name="asciicircum" unicode="^" horiz-adv-x="441" 
d="M422 333h-94l-108 247l-107 -247h-94l156 334h93z" />
    <glyph glyph-name="underscore" unicode="_" horiz-adv-x="564" 
d="M567 -125h-570v85h570v-85z" />
    <glyph glyph-name="quoteleft" unicode="&#x2018;" horiz-adv-x="255" 
d="M39 492c0 75 41 142 103 186l55 -45c-32 -17 -69 -59 -78 -95c3 2 12 3 20 3c38 0 68 -29 68 -72s-36 -79 -79 -79c-47 0 -89 37 -89 102z" />
    <glyph glyph-name="a" unicode="a" horiz-adv-x="543" 
d="M481 0h-128v51c-33 -40 -90 -63 -153 -63c-77 0 -167 52 -167 160c0 114 90 156 167 156c65 0 121 -21 153 -59v61c0 49 -42 81 -106 81c-51 0 -99 -20 -139 -57l-50 89c59 53 135 76 211 76c111 0 212 -44 212 -183v-312zM251 74c41 0 81 14 102 42v60
c-21 28 -61 43 -102 43c-50 0 -91 -27 -91 -73s41 -72 91 -72z" />
    <glyph glyph-name="b" unicode="b" horiz-adv-x="586" 
d="M190 155c22 -31 68 -54 110 -54c73 0 122 57 122 141c0 83 -49 140 -122 140c-42 0 -88 -24 -110 -56v-171zM190 0h-127v667h127v-246c38 50 92 74 149 74c123 0 214 -96 214 -253c0 -162 -92 -254 -214 -254c-58 0 -111 26 -149 74v-62z" />
    <glyph glyph-name="c" unicode="c" horiz-adv-x="499" 
d="M288 -12c-148 0 -256 105 -256 254c0 148 108 253 256 253c99 0 159 -43 191 -87l-83 -78c-23 34 -58 52 -102 52c-77 0 -131 -56 -131 -140s54 -141 131 -141c44 0 79 20 102 53l83 -78c-32 -44 -92 -88 -191 -88z" />
    <glyph glyph-name="d" unicode="d" horiz-adv-x="586" 
d="M523 0h-128v62c-38 -48 -90 -74 -149 -74c-121 0 -214 92 -214 254c0 157 91 253 214 253c57 0 111 -24 149 -74v246h128v-667zM286 101c42 0 88 23 109 55v171c-21 32 -67 55 -109 55c-73 0 -123 -57 -123 -140c0 -84 50 -141 123 -141z" />
    <glyph glyph-name="e" unicode="e" horiz-adv-x="553" 
d="M290 -12c-147 0 -258 99 -258 254c0 140 104 253 250 253c145 0 242 -108 242 -265v-30h-359c9 -59 57 -108 139 -108c41 0 97 17 128 47l57 -84c-48 -44 -124 -67 -199 -67zM402 288c-4 46 -36 103 -120 103c-79 0 -113 -55 -118 -103h238z" />
    <glyph glyph-name="f" unicode="f" horiz-adv-x="327" 
d="M219 0h-127v372h-80v111h80v20c0 109 65 174 162 174c47 0 97 -13 126 -46l-48 -77c-13 12 -30 19 -53 19c-36 0 -60 -23 -60 -70v-20h98v-111h-98v-372z" />
    <glyph glyph-name="g" unicode="g" horiz-adv-x="585" 
d="M261 -196c-82 0 -147 19 -208 72l57 91c39 -42 91 -59 151 -59c61 0 134 26 134 124v47c-38 -48 -90 -75 -150 -75c-120 0 -213 84 -213 245c0 158 91 246 213 246c58 0 111 -24 150 -74v62h127v-451c0 -183 -142 -228 -261 -228zM286 116c41 0 87 24 109 55v157
c-22 31 -68 54 -109 54c-73 0 -123 -50 -123 -133s50 -133 123 -133z" />
    <glyph glyph-name="h" unicode="h" horiz-adv-x="580" 
d="M517 0h-127v294c0 67 -35 88 -89 88c-50 0 -89 -28 -110 -56v-326h-128v667h128v-246c31 36 90 74 169 74c106 0 157 -58 157 -152v-343z" />
    <glyph glyph-name="i" unicode="i" horiz-adv-x="253" 
d="M126 535c-41 0 -75 34 -75 76s34 75 75 75c42 0 76 -33 76 -75s-34 -76 -76 -76zM190 0h-127v483h127v-483z" />
    <glyph glyph-name="j" unicode="j" horiz-adv-x="253" 
d="M126 535c-41 0 -75 34 -75 76s34 75 75 75c42 0 76 -33 76 -75s-34 -76 -76 -76zM18 -196c-61 0 -85 10 -120 35l34 94c19 -16 36 -25 65 -25c39 0 66 25 66 79v496h127v-496c0 -110 -56 -183 -172 -183z" />
    <glyph glyph-name="k" unicode="k" horiz-adv-x="536" 
d="M535 0h-159l-128 186l-58 -62v-124h-127v667h127v-399l183 215h156l-191 -219z" />
    <glyph glyph-name="l" unicode="l" horiz-adv-x="253" 
d="M190 0h-127v667h127v-667z" />
    <glyph glyph-name="m" unicode="m" horiz-adv-x="853" 
d="M790 0h-128v305c0 45 -20 77 -72 77c-45 0 -82 -30 -100 -56v-326h-128v305c0 45 -20 77 -72 77c-44 0 -81 -30 -100 -56v-326h-127v483h127v-62c21 28 84 74 158 74c71 0 117 -33 134 -87c28 43 92 87 166 87c89 0 142 -47 142 -146v-349z" />
    <glyph glyph-name="n" unicode="n" horiz-adv-x="579" 
d="M517 0h-128v292c0 67 -35 90 -89 90c-50 0 -88 -28 -110 -56v-326h-127v483h127v-62c31 36 91 74 169 74c107 0 158 -60 158 -154v-341z" />
    <glyph glyph-name="o" unicode="o" horiz-adv-x="575" 
d="M287 -12c-159 0 -255 117 -255 254s96 253 255 253c160 0 256 -116 256 -253s-96 -254 -256 -254zM287 101c80 0 124 65 124 141c0 75 -44 140 -124 140c-79 0 -123 -65 -123 -140c0 -76 44 -141 123 -141z" />
    <glyph glyph-name="p" unicode="p" horiz-adv-x="583" 
d="M339 -12c-57 0 -109 24 -149 74v-246h-127v667h127v-61c37 47 90 73 149 73c124 0 214 -92 214 -253s-90 -254 -214 -254zM299 101c73 0 123 57 123 141c0 83 -50 140 -123 140c-41 0 -87 -23 -109 -55v-170c21 -31 68 -56 109 -56z" />
    <glyph glyph-name="q" unicode="q" horiz-adv-x="583" 
d="M284 101c42 0 88 25 109 56v170c-21 32 -67 55 -109 55c-72 0 -122 -57 -122 -140c0 -84 50 -141 122 -141zM244 -12c-123 0 -213 93 -213 254s90 253 213 253c59 0 112 -26 149 -73v61h128v-667h-128v246c-39 -50 -91 -74 -149 -74z" />
    <glyph glyph-name="r" unicode="r" horiz-adv-x="360" 
d="M190 0h-127v483h127v-65c35 42 94 77 154 77v-124c-9 2 -20 3 -35 3c-42 0 -98 -24 -119 -55v-319z" />
    <glyph glyph-name="s" unicode="s" horiz-adv-x="477" 
d="M237 -12c-84 0 -165 28 -216 75l55 92c36 -34 107 -67 167 -67c55 0 81 21 81 51c0 79 -286 14 -286 204c0 81 70 152 198 152c81 0 146 -28 194 -66l-51 -90c-29 30 -84 56 -143 56c-46 0 -76 -20 -76 -47c0 -71 287 -11 287 -206c0 -89 -76 -154 -210 -154z" />
    <glyph glyph-name="t" unicode="t" horiz-adv-x="338" 
d="M225 -12c-89 0 -136 46 -136 133v251h-80v111h80v132h127v-132h98v-111h-98v-217c0 -31 16 -54 44 -54c19 0 37 7 44 15l27 -97c-19 -17 -53 -31 -106 -31z" />
    <glyph glyph-name="u" unicode="u" horiz-adv-x="579" 
d="M516 0h-127v61c-33 -36 -91 -73 -170 -73c-106 0 -156 58 -156 152v343h127v-293c0 -67 35 -89 89 -89c49 0 88 27 110 55v327h127v-483z" />
    <glyph glyph-name="v" unicode="v" horiz-adv-x="513" 
d="M325 0h-137l-194 483h136l126 -336l127 336h136z" />
    <glyph glyph-name="w" unicode="w" horiz-adv-x="770" 
d="M623 0h-136l-102 329l-102 -329h-136l-147 483h132l90 -325l106 325h113l106 -325l90 325h133z" />
    <glyph glyph-name="x" unicode="x" horiz-adv-x="504" 
d="M504 0h-142l-110 163l-111 -163h-141l172 248l-162 235h142l100 -148l99 148h142l-161 -235z" />
    <glyph glyph-name="y" unicode="y" horiz-adv-x="513" 
d="M47 -188l18 113c11 -5 28 -8 40 -8c33 0 55 9 67 35l18 42l-196 489h136l126 -336l127 336h136l-227 -562c-36 -91 -100 -115 -183 -117c-14 0 -47 3 -62 8z" />
    <glyph glyph-name="z" unicode="z" horiz-adv-x="479" 
d="M437 0h-395v95l218 277h-218v111h391v-91l-222 -281h226v-111z" />
    <glyph glyph-name="braceleft" unicode="{" horiz-adv-x="288" 
d="M271 -190h-60c-81 0 -155 60 -155 159v172c0 37 -17 67 -52 67v72c35 0 52 30 52 67v171c0 99 74 160 155 160h60v-85h-60c-35 0 -63 -29 -63 -74v-185c0 -42 -13 -76 -46 -90c33 -14 46 -48 46 -90v-184c0 -45 28 -75 63 -75h60v-85z" />
    <glyph glyph-name="bar" unicode="|" horiz-adv-x="216" 
d="M151 -20h-85v707h85v-707z" />
    <glyph glyph-name="braceright" unicode="}" horiz-adv-x="288" 
d="M17 -190v85h61c34 0 63 30 63 75v184c0 42 13 76 46 90c-33 14 -46 48 -46 90v185c0 45 -29 74 -63 74h-61v85h61c80 0 155 -61 155 -160v-171c0 -37 17 -67 52 -67v-72c-35 0 -52 -30 -52 -67v-172c0 -99 -75 -159 -155 -159h-61z" />
    <glyph glyph-name="asciitilde" unicode="~" horiz-adv-x="510" 
d="M398 667l86 -10c-10 -120 -36 -245 -148 -245c-130 0 -101 176 -161 176c-40 0 -55 -90 -62 -176l-87 10c10 119 38 244 149 244c130 0 101 -177 161 -177c40 0 55 89 62 178z" />
    <glyph glyph-name="exclamdown" unicode="&#xa1;" horiz-adv-x="255" 
d="M51 -184l20 449h112l21 -449h-153zM46 414c0 43 37 80 81 80s80 -37 80 -80c0 -44 -36 -81 -80 -81s-81 37 -81 81z" />
    <glyph glyph-name="cent" unicode="&#xa2;" horiz-adv-x="499" 
d="M241 -100v92c-123 20 -209 117 -209 250c0 132 86 229 209 249v74h92v-73c72 -11 119 -47 146 -84l-83 -78c-16 23 -37 39 -63 47v-271c26 8 47 25 63 48l83 -78c-27 -37 -74 -74 -146 -84v-92h-92zM163 242c0 -63 30 -111 78 -131v261c-48 -20 -78 -67 -78 -130z" />
    <glyph glyph-name="sterling" unicode="&#xa3;" horiz-adv-x="550" 
d="M23 269v81h68c-25 34 -46 71 -46 120c0 127 125 207 243 207c111 0 190 -39 232 -121l-113 -66c-16 42 -56 71 -102 71c-59 0 -105 -37 -105 -93c0 -51 26 -82 49 -118h144v-81h-112c0 -6 1 -13 1 -19c0 -47 -29 -89 -65 -111c15 5 34 8 49 8c58 0 81 -33 130 -33
c43 0 73 18 86 36l57 -113c-28 -28 -75 -50 -148 -50c-87 0 -120 44 -181 44c-35 0 -76 -16 -116 -38l-48 97c63 30 109 74 109 125c0 19 -5 37 -12 54h-120z" />
    <glyph glyph-name="fraction" unicode="&#x2044;" horiz-adv-x="159" 
d="M331 667l-427 -667h-76l426 667h77z" />
    <glyph glyph-name="fraction" unicode="&#x2215;" horiz-adv-x="159" 
d="M331 667l-427 -667h-76l426 667h77z" />
    <glyph glyph-name="yen" unicode="&#xa5;" horiz-adv-x="645" 
d="M394 0h-142v115h-228v78h228v80h-228v79h176l-204 315h162l165 -267l165 267h161l-204 -315h178v-79h-229v-80h229v-78h-229v-115z" />
    <glyph glyph-name="florin" unicode="&#x192;" horiz-adv-x="454" 
d="M153 -161h-145l88 399h-54v112h78l37 166c21 96 102 161 198 161c47 0 87 -10 118 -42l-54 -104c-12 14 -26 21 -47 21c-36 0 -66 -24 -76 -67l-30 -135h113v-112h-137z" />
    <glyph glyph-name="section" unicode="&#xa7;" horiz-adv-x="484" 
d="M447 326c0 -54 -30 -101 -84 -128c48 -21 84 -57 84 -122c0 -100 -89 -157 -210 -157c-100 0 -168 37 -214 79l53 80c34 -33 95 -70 161 -70c52 0 87 19 87 57c0 95 -286 30 -286 217c0 67 52 109 97 124c-63 24 -97 66 -97 127c0 81 80 144 197 144
c99 0 159 -33 194 -68l-50 -75c-34 34 -88 54 -138 54s-81 -20 -81 -53c0 -86 287 -21 287 -209zM321 302c0 43 -39 62 -83 72c-61 -14 -78 -40 -78 -73c0 -48 52 -62 103 -73c39 17 58 39 58 74z" />
    <glyph glyph-name="currency" unicode="&#xa4;" horiz-adv-x="522" 
d="M486 137l-29 -29l-56 57c-39 -33 -90 -51 -140 -51c-51 0 -101 18 -140 51l-57 -57l-28 29l56 56c-32 40 -50 90 -50 140c0 51 18 101 50 140l-56 57l28 28l57 -56c39 33 89 50 140 50c50 0 101 -18 140 -50l56 56l29 -28l-56 -57c32 -39 50 -89 50 -140
c0 -50 -18 -100 -50 -140zM432 333c0 95 -77 171 -171 171s-171 -76 -171 -171c0 -94 77 -171 171 -171s171 77 171 171z" />
    <glyph glyph-name="quotesingle" unicode="'" horiz-adv-x="225" 
d="M141 375h-56s-41 214 -41 233c0 38 31 69 69 69c37 0 69 -31 69 -69c0 -19 -41 -233 -41 -233z" />
    <glyph glyph-name="quotedblleft" unicode="&#x201c;" horiz-adv-x="459" 
d="M40 492c0 75 41 142 103 186l55 -45c-32 -17 -69 -59 -78 -95c4 2 12 3 20 3c38 0 68 -29 68 -72s-36 -79 -79 -79c-47 0 -89 37 -89 102zM244 492c0 75 41 142 103 186l55 -45c-32 -17 -70 -59 -78 -95c3 2 12 3 20 3c38 0 67 -29 67 -72s-35 -79 -78 -79
c-47 0 -89 37 -89 102z" />
    <glyph glyph-name="guillemotleft" unicode="&#xab;" horiz-adv-x="527" 
d="M497 63h-117l-160 180l160 177h117l-160 -177zM308 63h-118l-160 180l160 177h118l-160 -177z" />
    <glyph glyph-name="guilsinglleft" unicode="&#x2039;" horiz-adv-x="338" 
d="M308 63h-118l-160 180l160 177h118l-160 -177z" />
    <glyph glyph-name="guilsinglright" unicode="&#x203a;" horiz-adv-x="338" 
d="M308 243l-160 -180h-118l160 180l-160 177h118z" />
    <glyph glyph-name="endash" unicode="&#x2013;" horiz-adv-x="593" 
d="M563 188h-533v108h533v-108z" />
    <glyph glyph-name="dagger" unicode="&#x2020;" horiz-adv-x="277" 
d="M257 522l-89 4l4 -199h-68l5 199l-89 -4v62l89 -3l-5 96h68l-4 -96l89 3v-62z" />
    <glyph glyph-name="daggerdbl" unicode="&#x2021;" horiz-adv-x="277" 
d="M257 584v-62l-89 4v-194l89 4v-62l-89 3l4 -97h-68l4 97l-88 -3v62l88 -4v194l-88 -4v62l88 -3l-4 96h68l-4 -96z" />
    <glyph glyph-name="periodcentered" unicode="&#xb7;" horiz-adv-x="257" 
d="M209 244c0 -43 -37 -80 -81 -80s-80 37 -80 80c0 44 36 81 80 81s81 -37 81 -81z" />
    <glyph glyph-name="periodcentered" unicode="&#x2219;" horiz-adv-x="257" 
d="M209 244c0 -43 -37 -80 -81 -80s-80 37 -80 80c0 44 36 81 80 81s81 -37 81 -81z" />
    <glyph glyph-name="paragraph" unicode="&#xb6;" horiz-adv-x="449" 
d="M403 -100h-63v705h-78v-705h-63v423c-95 0 -172 77 -172 172s77 172 172 172h204v-767z" />
    <glyph glyph-name="bullet" unicode="&#x2022;" horiz-adv-x="358" 
d="M299 242c0 -65 -53 -118 -119 -118s-119 53 -119 118c0 66 53 119 119 119s119 -53 119 -119z" />
    <glyph glyph-name="quotesinglbase" unicode="&#x201a;" horiz-adv-x="255" 
d="M215 49c0 -75 -41 -142 -103 -186l-55 45c32 17 69 59 77 94c-3 -1 -11 -3 -19 -3c-38 0 -68 30 -68 72c0 44 36 80 79 80c47 0 89 -37 89 -102z" />
    <glyph glyph-name="quotedblbase" unicode="&#x201e;" horiz-adv-x="459" 
d="M215 49c0 -75 -41 -142 -103 -186l-55 45c32 17 69 59 77 94c-3 -1 -11 -3 -19 -3c-38 0 -68 30 -68 72c0 44 36 80 79 80c47 0 89 -37 89 -102zM418 49c0 -75 -41 -142 -103 -186l-55 45c32 17 70 59 78 94c-3 -1 -12 -3 -20 -3c-38 0 -67 30 -67 72c0 44 35 80 78 80
c47 0 89 -37 89 -102z" />
    <glyph glyph-name="quotedblright" unicode="&#x201d;" horiz-adv-x="459" 
d="M418 575c0 -75 -41 -142 -103 -186l-55 45c32 17 70 59 78 95c-3 -2 -12 -3 -20 -3c-38 0 -67 29 -67 72s35 79 78 79c47 0 89 -37 89 -102zM215 575c0 -75 -41 -142 -103 -186l-55 45c32 17 69 59 77 95c-3 -2 -11 -3 -19 -3c-38 0 -68 29 -68 72s36 79 79 79
c47 0 89 -37 89 -102z" />
    <glyph glyph-name="guillemotright" unicode="&#xbb;" horiz-adv-x="527" 
d="M308 243l-160 -180h-118l160 180l-160 177h118zM497 243l-160 -180h-117l160 180l-160 177h117z" />
    <glyph glyph-name="ellipsis" unicode="&#x2026;" horiz-adv-x="768" 
d="M209 70c0 -43 -37 -80 -81 -80s-80 37 -80 80c0 44 36 81 80 81s81 -37 81 -81zM465 70c0 -43 -37 -80 -81 -80s-80 37 -80 80c0 44 36 81 80 81s81 -37 81 -81zM721 70c0 -43 -37 -80 -81 -80s-80 37 -80 80c0 44 36 81 80 81s81 -37 81 -81z" />
    <glyph glyph-name="perthousand" unicode="&#x2030;" horiz-adv-x="1122" 
d="M365 510c0 -93 -67 -165 -170 -165c-102 0 -169 72 -169 165c0 94 67 167 169 167c103 0 170 -73 170 -167zM632 667l-427 -667h-75l426 667h76zM732 153c0 -93 -68 -165 -170 -165s-169 72 -169 165c0 94 67 168 169 168s170 -74 170 -168zM275 510c0 61 -34 96 -80 96
c-45 0 -79 -35 -79 -96c0 -59 34 -95 79 -95c46 0 80 36 80 95zM642 153c0 61 -34 97 -80 97s-79 -36 -79 -97c0 -59 33 -94 79 -94s80 35 80 94zM1096 153c0 -93 -68 -165 -170 -165s-169 72 -169 165c0 94 67 168 169 168s170 -74 170 -168zM1006 153c0 61 -34 97 -80 97
s-79 -36 -79 -97c0 -59 33 -94 79 -94s80 35 80 94z" />
    <glyph glyph-name="questiondown" unicode="&#xbf;" 
d="M278 278c21 -23 33 -54 33 -89c0 -118 -147 -132 -147 -201c0 -31 24 -57 79 -57c50 0 92 24 123 62l81 -91c-53 -63 -133 -97 -219 -97c-129 0 -208 65 -208 158c0 146 167 157 167 241c0 16 -8 33 -19 42zM230 494c44 0 81 -37 81 -81s-37 -81 -81 -81s-81 37 -81 81
s37 81 81 81z" />
    <glyph glyph-name="grave" unicode="`" horiz-adv-x="251" 
d="M251 556h-89l-162 144h117z" />
    <glyph glyph-name="grave" unicode="&#x2cb;" horiz-adv-x="251" 
d="M251 556h-89l-162 144h117z" />
    <glyph glyph-name="acute" unicode="&#xb4;" horiz-adv-x="251" 
d="M251 700l-162 -144h-89l134 144h117z" />
    <glyph glyph-name="circumflex" unicode="&#x2c6;" horiz-adv-x="300" 
d="M300 556h-78l-73 89l-71 -89h-78l92 144h114z" />
    <glyph glyph-name="tilde" unicode="&#x2dc;" horiz-adv-x="327" 
d="M220 554c-68 0 -79 68 -117 68c-20 0 -36 -19 -36 -62h-67c0 85 38 134 108 134c67 0 78 -67 116 -67c20 0 36 19 36 61h67c0 -85 -37 -134 -107 -134z" />
    <glyph glyph-name="macron" unicode="&#xaf;" horiz-adv-x="363" 
d="M363 591h-363v73h363v-73z" />
    <glyph glyph-name="macron" unicode="&#x203e;" horiz-adv-x="363" 
d="M363 591h-363v73h363v-73z" />
    <glyph glyph-name="breve" unicode="&#x2d8;" horiz-adv-x="351" 
d="M351 644c-40 -54 -103 -88 -175 -88c-71 0 -135 34 -176 88l57 47c26 -37 68 -62 119 -62c50 0 91 23 119 62z" />
    <glyph glyph-name="dotaccent" unicode="&#x2d9;" horiz-adv-x="174" 
d="M88 551c-38 0 -68 31 -68 68c0 38 30 68 68 68c36 0 67 -30 67 -68c0 -37 -31 -68 -67 -68z" />
    <glyph glyph-name="dieresis" unicode="&#xa8;" horiz-adv-x="295" 
d="M321 611c0 -38 -30 -68 -68 -68c-37 0 -68 30 -68 68s31 68 68 68c38 0 68 -30 68 -68zM110 611c0 -38 -30 -68 -68 -68s-68 30 -68 68s30 68 68 68s68 -30 68 -68z" />
    <glyph glyph-name="ring" unicode="&#x2da;" horiz-adv-x="209" 
d="M105 548c-57 0 -105 48 -105 105c0 58 48 105 105 105c58 0 104 -47 104 -105c0 -57 -46 -105 -104 -105zM105 606c26 0 46 21 46 47s-20 47 -46 47c-25 0 -47 -21 -47 -47s22 -47 47 -47z" />
    <glyph glyph-name="cedilla" unicode="&#xb8;" horiz-adv-x="221" 
d="M110 -195c-48 0 -89 14 -110 31l25 51c25 -19 54 -29 82 -29c26 0 51 11 51 33c0 16 -10 26 -29 26c-13 0 -24 -6 -32 -14l-46 26l30 82h63l-25 -62c10 7 22 10 35 10c37 0 67 -28 67 -70c0 -53 -50 -84 -111 -84z" />
    <glyph glyph-name="hungarumlaut" unicode="&#x2dd;" horiz-adv-x="338" 
d="M189 700l-115 -144h-74l87 144h102zM338 700l-115 -144h-74l87 144h102z" />
    <glyph glyph-name="ogonek" unicode="&#x2db;" horiz-adv-x="195" 
d="M143 -98l52 -32c-19 -32 -48 -56 -95 -56c-52 0 -100 26 -100 90c0 52 33 96 89 126l45 -30c-49 -24 -71 -55 -71 -90c0 -31 18 -42 37 -42c22 0 36 14 43 34z" />
    <glyph glyph-name="caron" unicode="&#x2c7;" horiz-adv-x="300" 
d="M209 556h-114l-95 144h78l74 -89l70 89h78z" />
    <glyph glyph-name="emdash" unicode="&#x2014;" horiz-adv-x="833" 
d="M803 188h-773v108h773v-108z" />
    <glyph glyph-name="AE" unicode="&#xc6;" horiz-adv-x="968" 
d="M926 0h-472v113h-234l-66 -113h-163l406 667h529v-125h-329v-140h322v-125h-322v-152h329v-125zM454 238v287l-167 -287h167z" />
    <glyph glyph-name="ordfeminine" unicode="&#xaa;" horiz-adv-x="385" 
d="M335 326h-92v32c-18 -20 -51 -40 -102 -40c-53 0 -110 34 -110 104s57 101 110 101c51 0 84 -18 102 -37v39c0 33 -28 54 -69 54c-31 0 -66 -14 -92 -41l-35 60c40 34 93 50 143 50c74 0 145 -28 145 -125v-197zM179 376c25 0 51 10 64 28v36c-13 17 -39 27 -64 27
c-30 0 -57 -16 -57 -45c0 -31 27 -46 57 -46z" />
    <glyph glyph-name="Lslash" unicode="&#x141;" horiz-adv-x="535" 
d="M9 192v116l71 41v318h143v-235l76 44v-117l-76 -44v-190h282v-125h-425v233z" />
    <glyph glyph-name="Oslash" unicode="&#xd8;" horiz-adv-x="765" 
d="M383 -12c-69 0 -132 16 -185 47l-26 -35h-103l64 84c-62 61 -99 148 -99 249c0 201 147 345 349 345c64 0 122 -15 172 -41l23 30h102l-58 -76c68 -62 109 -152 109 -258c0 -201 -147 -345 -348 -345zM383 114c123 0 202 95 202 219c0 58 -17 109 -47 147l-259 -339
c29 -17 64 -27 104 -27zM180 333c0 -52 13 -99 39 -136l255 334c-26 13 -57 21 -91 21c-124 0 -203 -94 -203 -219z" />
    <glyph glyph-name="OE" unicode="&#x152;" horiz-adv-x="1084" 
d="M1041 0h-471v78c-46 -60 -128 -90 -202 -90c-194 0 -334 143 -334 345s140 344 334 344c74 0 156 -29 202 -88v78h471v-125h-329v-140h322v-125h-322v-152h329v-125zM570 230v207c-33 75 -101 114 -182 114c-129 0 -208 -93 -208 -218c0 -124 79 -219 208 -219
c81 0 149 42 182 116z" />
    <glyph glyph-name="ordmasculine" unicode="&#xba;" horiz-adv-x="405" 
d="M202 318c-106 0 -172 76 -172 165s66 165 172 165c108 0 173 -76 173 -165s-65 -165 -173 -165zM202 392c49 0 79 36 79 91s-30 89 -79 89c-48 0 -77 -34 -77 -89s29 -91 77 -91z" />
    <glyph glyph-name="ae" unicode="&#xe6;" horiz-adv-x="870" 
d="M841 200h-359c9 -59 57 -106 139 -106c41 0 97 18 128 48l57 -87c-48 -44 -124 -67 -199 -67c-84 0 -156 35 -199 88c-40 -47 -109 -88 -198 -88c-87 0 -177 51 -177 158c0 106 80 158 167 158c62 0 119 -20 153 -58v60c0 49 -42 81 -106 81c-51 0 -99 -19 -139 -57
l-50 89c59 53 135 76 211 76c83 0 137 -26 164 -79c35 45 85 79 173 79c138 0 235 -108 235 -265v-30zM481 288h238c-3 46 -36 103 -120 103c-78 0 -113 -55 -118 -103zM363 130c-5 9 -10 30 -10 45c-21 28 -61 44 -102 44c-50 0 -91 -28 -91 -73c0 -46 41 -72 91 -72
c41 0 88 14 112 56z" />
    <glyph glyph-name="dotlessi" unicode="&#x131;" horiz-adv-x="253" 
d="M190 0h-127v483h127v-483z" />
    <glyph glyph-name="lslash" unicode="&#x142;" horiz-adv-x="308" 
d="M9 204v93l82 47v323h127v-250l82 47v-92l-82 -48v-324h-127v251z" />
    <glyph glyph-name="oslash" unicode="&#xf8;" horiz-adv-x="575" 
d="M119 0h-79l57 67c-42 46 -65 108 -65 175c0 137 96 253 255 253c55 0 103 -14 141 -38l22 26h80l-55 -64c44 -46 68 -109 68 -177c0 -137 -96 -254 -256 -254c-57 0 -105 15 -144 40zM287 101c80 0 124 65 124 141c0 29 -7 56 -19 79l-171 -201c18 -12 40 -19 66 -19z
M164 242c0 -28 6 -54 17 -76l169 199c-18 11 -39 17 -63 17c-79 0 -123 -65 -123 -140z" />
    <glyph glyph-name="oe" unicode="&#x153;" horiz-adv-x="931" 
d="M903 200h-359c9 -59 57 -108 138 -108c42 0 97 18 129 47l57 -84c-49 -44 -124 -67 -199 -67c-107 0 -161 59 -194 107c-32 -46 -87 -107 -188 -107c-159 0 -255 117 -255 254s96 253 255 253c101 0 156 -62 189 -107c30 46 86 107 185 107c144 0 242 -108 242 -265v-30z
M542 288h238c-3 46 -35 103 -119 103c-79 0 -114 -55 -119 -103zM411 242c0 82 -49 140 -124 140c-74 0 -123 -58 -123 -140c0 -83 49 -142 123 -142c75 0 124 59 124 142z" />
    <glyph glyph-name="germandbls" unicode="&#xdf;" horiz-adv-x="643" 
d="M627 145c0 -91 -77 -157 -201 -157c-97 0 -149 35 -196 79l53 88c27 -35 85 -65 143 -65c53 0 79 23 79 50c0 78 -261 22 -261 204c0 104 123 126 123 170c0 34 -38 50 -77 50c-56 0 -99 -33 -99 -89v-475h-128v475c0 110 84 202 229 202c106 0 206 -55 206 -144
c0 -113 -132 -125 -132 -184c0 -70 261 -10 261 -204z" />
    <glyph glyph-name="onesuperior" unicode="&#xb9;" horiz-adv-x="286" 
d="M226 421h-97v277l-67 -69l-55 58l136 134h83v-400z" />
    <glyph glyph-name="logicalnot" unicode="&#xac;" horiz-adv-x="515" 
d="M475 468v-267h-81v188h-365v79h446z" />
    <glyph glyph-name="mu" unicode="&#xb5;" horiz-adv-x="579" 
d="M190 -184h-127v667h127v-298c1 -63 36 -85 89 -85c49 0 88 28 110 56v327h127v-483h-127v61c-33 -36 -91 -73 -170 -73c-10 0 -20 1 -29 2v-174z" />
    <glyph glyph-name="mu" unicode="&#x3bc;" horiz-adv-x="579" 
d="M190 -184h-127v667h127v-298c1 -63 36 -85 89 -85c49 0 88 28 110 56v327h127v-483h-127v61c-33 -36 -91 -73 -170 -73c-10 0 -20 1 -29 2v-174z" />
    <glyph glyph-name="trademark" unicode="&#x2122;" horiz-adv-x="454" 
d="M419 447h-28v182l-75 -182h-8l-75 182v-182h-28v220h43l64 -160l64 160h43v-220zM169 641h-62v-194h-28v194h-62v26h152v-26z" />
    <glyph glyph-name="Eth" unicode="&#xd0;" horiz-adv-x="742" 
d="M355 0h-264v277h-82v106h82v284h263c209 0 354 -133 354 -333c0 -202 -145 -334 -353 -334zM383 277h-150v-152h121c132 0 209 95 209 209c0 117 -72 208 -208 208h-122v-159h150v-106z" />
    <glyph glyph-name="onehalf" unicode="&#xbd;" horiz-adv-x="867" 
d="M641 667l-427 -667h-76l426 667h77zM830 0h-315v70c173 121 216 160 216 204c0 37 -30 55 -68 55c-46 0 -89 -25 -109 -49l-50 60c42 47 106 66 161 66c92 0 161 -44 161 -124c0 -66 -56 -123 -172 -205h176v-77zM226 267h-97v277l-67 -69l-55 58l136 134h83v-400z" />
    <glyph glyph-name="plusminus" unicode="&#xb1;" horiz-adv-x="504" 
d="M475 326h-179v-203h-87v203h-180v79h180v196h87v-196h179v-79zM475 0h-446v79h446v-79z" />
    <glyph glyph-name="Thorn" unicode="&#xde;" horiz-adv-x="625" 
d="M208 0h-142v667h142v-108h170c145 0 224 -99 224 -216c0 -116 -80 -213 -224 -213h-170v-130zM358 255c56 0 99 34 99 89s-43 91 -99 91h-150v-180h150z" />
    <glyph glyph-name="onequarter" unicode="&#xbc;" horiz-adv-x="833" 
d="M641 667l-427 -667h-76l426 667h77zM809 86h-52v-86h-96v86h-196v65l158 249h134v-239h52v-75zM661 161v158l-101 -158h101zM226 267h-97v277l-67 -69l-55 58l136 134h83v-400z" />
    <glyph glyph-name="divide" unicode="&#xf7;" horiz-adv-x="511" 
d="M316 516c0 -34 -27 -62 -61 -62c-33 0 -61 28 -61 62c0 33 28 60 61 60c34 0 61 -27 61 -60zM482 298h-453v79h453v-79zM316 157c0 -34 -27 -61 -61 -61c-33 0 -61 27 -61 61s28 61 61 61c34 0 61 -27 61 -61z" />
    <glyph glyph-name="brokenbar" unicode="&#xa6;" horiz-adv-x="216" 
d="M151 -20h-85v316h85v-316zM151 371h-85v316h85v-316z" />
    <glyph glyph-name="degree" unicode="&#xb0;" horiz-adv-x="311" 
d="M291 541c0 -74 -61 -134 -136 -134s-135 60 -135 134c0 75 60 136 135 136s136 -61 136 -136zM222 541c0 37 -31 67 -67 67s-65 -30 -65 -67c0 -36 29 -65 65 -65s67 29 67 65z" />
    <glyph glyph-name="thorn" unicode="&#xfe;" horiz-adv-x="583" 
d="M339 -12c-57 0 -109 24 -149 74v-246h-127v851h127v-245c37 47 90 73 149 73c124 0 214 -92 214 -253s-90 -254 -214 -254zM299 101c73 0 123 57 123 141c0 83 -50 140 -123 140c-41 0 -87 -23 -109 -55v-170c21 -31 68 -56 109 -56z" />
    <glyph glyph-name="threequarters" unicode="&#xbe;" horiz-adv-x="921" 
d="M729 667l-427 -667h-76l426 667h77zM896 86h-52v-86h-96v86h-196v65l158 249h134v-239h52v-75zM748 161v158l-101 -158h101zM363 378c0 -69 -65 -118 -166 -118c-77 0 -134 27 -165 63l48 63c30 -33 77 -49 114 -49c48 0 73 19 73 47c0 39 -37 49 -88 49
c-18 0 -38 0 -44 -1v76c8 -1 27 -1 43 -1c53 0 83 12 83 45c0 30 -32 44 -73 44c-40 0 -76 -13 -106 -43l-45 56c34 37 86 64 161 64c101 0 158 -44 158 -109c0 -49 -42 -83 -89 -91c42 -3 96 -35 96 -95z" />
    <glyph glyph-name="twosuperior" unicode="&#xb2;" 
d="M361 421h-315v70c173 121 216 160 216 204c0 37 -30 55 -68 55c-46 0 -89 -25 -109 -49l-50 60c42 47 106 66 161 66c92 0 161 -44 161 -124c0 -66 -56 -123 -172 -205h176v-77z" />
    <glyph glyph-name="registered" unicode="&#xae;" horiz-adv-x="494" 
d="M459 465c0 -117 -94 -212 -212 -212c-117 0 -212 95 -212 212c0 118 95 212 212 212c118 0 212 -94 212 -212zM427 465c0 101 -80 180 -180 180s-180 -79 -180 -180c0 -99 80 -180 180 -180s180 81 180 180zM347 343h-42l-63 96h-42v-96h-34v243h99c41 0 79 -29 79 -74
c0 -54 -48 -72 -62 -72zM309 512c0 27 -23 44 -44 44h-65v-86h65c21 0 44 17 44 42z" />
    <glyph glyph-name="minus" unicode="&#x2212;" horiz-adv-x="504" 
d="M475 295h-446v79h446v-79z" />
    <glyph glyph-name="eth" unicode="&#xf0;" horiz-adv-x="575" 
d="M103 469l-25 60l108 47c-21 13 -42 26 -62 38l69 102c44 -27 86 -55 123 -83l103 45l26 -57l-74 -33c107 -95 172 -203 172 -336c0 -156 -96 -264 -256 -264c-154 0 -255 99 -255 236c0 139 93 236 214 236c69 0 121 -31 160 -92c-27 60 -87 116 -157 166zM287 101
c80 0 124 56 124 123s-44 124 -124 124c-79 0 -123 -57 -123 -124s44 -123 123 -123z" />
    <glyph glyph-name="multiply" unicode="&#xd7;" horiz-adv-x="504" 
d="M394 137l-142 142l-140 -142l-57 56l142 141l-142 141l57 56l140 -142l142 142l55 -56l-141 -141l141 -141z" />
    <glyph glyph-name="threesuperior" unicode="&#xb3;" 
d="M363 532c0 -69 -65 -118 -166 -118c-77 0 -134 27 -165 63l48 63c30 -33 77 -49 114 -49c48 0 73 19 73 47c0 39 -37 49 -88 49c-18 0 -38 0 -44 -1v76c8 -1 27 -1 43 -1c53 0 83 12 83 45c0 30 -32 44 -73 44c-40 0 -76 -13 -106 -43l-45 56c34 37 86 64 161 64
c101 0 158 -44 158 -109c0 -49 -42 -83 -89 -91c42 -3 96 -35 96 -95z" />
    <glyph glyph-name="copyright" unicode="&#xa9;" horiz-adv-x="778" 
d="M734 334c0 -190 -154 -345 -345 -345c-190 0 -345 155 -345 345c0 191 155 345 345 345c191 0 345 -154 345 -345zM698 334c0 170 -139 309 -309 309c-169 0 -309 -139 -309 -309c0 -169 140 -309 309 -309c170 0 309 140 309 309zM512 222l31 -31
c-36 -42 -87 -68 -149 -68c-115 0 -208 90 -208 212s93 210 208 210c62 0 113 -25 148 -66l-31 -31c-26 35 -70 57 -117 57c-88 0 -162 -69 -162 -170c0 -99 74 -172 162 -172c48 0 92 24 118 59z" />
    <glyph glyph-name="Aacute" unicode="&#xc1;" horiz-adv-x="684" 
d="M512 872l-162 -144h-89l134 144h117zM688 0h-161l-42 113h-286l-42 -113h-161l257 667h178zM446 238l-104 287l-104 -287h208z" />
    <glyph glyph-name="Acircumflex" unicode="&#xc2;" horiz-adv-x="684" 
d="M494 728h-78l-73 89l-71 -89h-78l92 144h114zM688 0h-161l-42 113h-286l-42 -113h-161l257 667h178zM446 238l-104 287l-104 -287h208z" />
    <glyph glyph-name="Adieresis" unicode="&#xc4;" horiz-adv-x="684" 
d="M516 784c0 -38 -30 -68 -68 -68c-37 0 -68 30 -68 68s31 68 68 68c38 0 68 -30 68 -68zM305 784c0 -38 -30 -68 -68 -68s-68 30 -68 68s30 68 68 68s68 -30 68 -68zM688 0h-161l-42 113h-286l-42 -113h-161l257 667h178zM446 238l-104 287l-104 -287h208z" />
    <glyph glyph-name="Agrave" unicode="&#xc0;" horiz-adv-x="684" 
d="M425 728h-89l-162 144h117zM688 0h-161l-42 113h-286l-42 -113h-161l257 667h178zM446 238l-104 287l-104 -287h208z" />
    <glyph glyph-name="Aring" unicode="&#xc5;" horiz-adv-x="684" 
d="M343 693c-57 0 -105 48 -105 105c0 58 48 105 105 105c58 0 104 -47 104 -105c0 -57 -46 -105 -104 -105zM343 751c26 0 46 21 46 47s-20 47 -46 47c-25 0 -47 -21 -47 -47s22 -47 47 -47zM688 0h-161l-42 113h-286l-42 -113h-161l257 667h178zM446 238l-104 287
l-104 -287h208z" />
    <glyph glyph-name="Atilde" unicode="&#xc3;" horiz-adv-x="684" 
d="M399 726c-68 0 -79 68 -117 68c-20 0 -36 -19 -36 -62h-67c0 85 38 134 108 134c67 0 78 -67 116 -67c20 0 36 19 36 61h67c0 -85 -37 -134 -107 -134zM688 0h-161l-42 113h-286l-42 -113h-161l257 667h178zM446 238l-104 287l-104 -287h208z" />
    <glyph glyph-name="Ccedilla" unicode="&#xc7;" horiz-adv-x="687" 
d="M384 -191c-48 0 -89 14 -110 31l25 51c25 -19 54 -29 82 -29c26 0 51 11 51 33c0 16 -10 26 -29 26c-13 0 -24 -6 -32 -14l-46 26l21 58c-179 18 -312 152 -312 342c0 206 155 345 356 345c146 0 231 -79 278 -163l-122 -60c-28 54 -88 97 -156 97
c-122 0 -210 -93 -210 -219s88 -219 210 -219c68 0 128 43 156 97l122 -59c-45 -80 -126 -157 -261 -163l-14 -36c10 7 22 10 35 10c37 0 67 -28 67 -70c0 -53 -50 -84 -111 -84z" />
    <glyph glyph-name="Eacute" unicode="&#xc9;" horiz-adv-x="583" 
d="M471 872l-162 -144h-89l134 144h117zM538 0h-472v667h472v-125h-330v-140h323v-125h-323v-152h330v-125z" />
    <glyph glyph-name="Ecircumflex" unicode="&#xca;" horiz-adv-x="583" 
d="M452 728h-78l-73 89l-71 -89h-78l92 144h114zM538 0h-472v667h472v-125h-330v-140h323v-125h-323v-152h330v-125z" />
    <glyph glyph-name="Edieresis" unicode="&#xcb;" horiz-adv-x="583" 
d="M477 784c0 -38 -30 -68 -68 -68c-37 0 -68 30 -68 68s31 68 68 68c38 0 68 -30 68 -68zM266 784c0 -38 -30 -68 -68 -68s-68 30 -68 68s30 68 68 68s68 -30 68 -68zM538 0h-472v667h472v-125h-330v-140h323v-125h-323v-152h330v-125z" />
    <glyph glyph-name="Egrave" unicode="&#xc8;" horiz-adv-x="583" 
d="M385 728h-89l-162 144h117zM538 0h-472v667h472v-125h-330v-140h323v-125h-323v-152h330v-125z" />
    <glyph glyph-name="Iacute" unicode="&#xcd;" horiz-adv-x="274" 
d="M309 872l-162 -144h-89l134 144h117zM208 0h-142v667h142v-667z" />
    <glyph glyph-name="Icircumflex" unicode="&#xce;" horiz-adv-x="274" 
d="M287 728h-78l-73 89l-71 -89h-78l92 144h114zM208 0h-142v667h142v-667z" />
    <glyph glyph-name="Idieresis" unicode="&#xcf;" horiz-adv-x="274" 
d="M311 784c0 -38 -30 -68 -68 -68c-37 0 -68 30 -68 68s31 68 68 68c38 0 68 -30 68 -68zM100 784c0 -38 -30 -68 -68 -68s-68 30 -68 68s30 68 68 68s68 -30 68 -68zM208 0h-142v667h142v-667z" />
    <glyph glyph-name="Igrave" unicode="&#xcc;" horiz-adv-x="274" 
d="M219 728h-89l-162 144h117zM208 0h-142v667h142v-667z" />
    <glyph glyph-name="Ntilde" unicode="&#xd1;" horiz-adv-x="729" 
d="M420 726c-68 0 -79 68 -117 68c-20 0 -36 -19 -36 -62h-67c0 85 38 134 108 134c67 0 78 -67 116 -67c20 0 36 19 36 61h67c0 -85 -37 -134 -107 -134zM663 0h-137l-318 435v-435h-142v667h146l309 -419v419h142v-667z" />
    <glyph glyph-name="Oacute" unicode="&#xd3;" horiz-adv-x="765" 
d="M553 872l-162 -144h-89l134 144h117zM383 -12c-202 0 -349 144 -349 345s147 345 349 345c201 0 348 -144 348 -345s-147 -345 -348 -345zM383 114c123 0 202 95 202 219c0 125 -79 219 -202 219c-124 0 -203 -94 -203 -219c0 -124 79 -219 203 -219z" />
    <glyph glyph-name="Ocircumflex" unicode="&#xd4;" horiz-adv-x="765" 
d="M535 728h-78l-73 89l-71 -89h-78l92 144h114zM383 -12c-202 0 -349 144 -349 345s147 345 349 345c201 0 348 -144 348 -345s-147 -345 -348 -345zM383 114c123 0 202 95 202 219c0 125 -79 219 -202 219c-124 0 -203 -94 -203 -219c0 -124 79 -219 203 -219z" />
    <glyph glyph-name="Odieresis" unicode="&#xd6;" horiz-adv-x="765" 
d="M557 784c0 -38 -30 -68 -68 -68c-37 0 -68 30 -68 68s31 68 68 68c38 0 68 -30 68 -68zM346 784c0 -38 -30 -68 -68 -68s-68 30 -68 68s30 68 68 68s68 -30 68 -68zM383 -12c-202 0 -349 144 -349 345s147 345 349 345c201 0 348 -144 348 -345s-147 -345 -348 -345z
M383 114c123 0 202 95 202 219c0 125 -79 219 -202 219c-124 0 -203 -94 -203 -219c0 -124 79 -219 203 -219z" />
    <glyph glyph-name="Ograve" unicode="&#xd2;" horiz-adv-x="765" 
d="M468 728h-89l-162 144h117zM383 -12c-202 0 -349 144 -349 345s147 345 349 345c201 0 348 -144 348 -345s-147 -345 -348 -345zM383 114c123 0 202 95 202 219c0 125 -79 219 -202 219c-124 0 -203 -94 -203 -219c0 -124 79 -219 203 -219z" />
    <glyph glyph-name="Otilde" unicode="&#xd5;" horiz-adv-x="765" 
d="M440 726c-68 0 -79 68 -117 68c-20 0 -36 -19 -36 -62h-67c0 85 38 134 108 134c67 0 78 -67 116 -67c20 0 36 19 36 61h67c0 -85 -37 -134 -107 -134zM383 -12c-202 0 -349 144 -349 345s147 345 349 345c201 0 348 -144 348 -345s-147 -345 -348 -345zM383 114
c123 0 202 95 202 219c0 125 -79 219 -202 219c-124 0 -203 -94 -203 -219c0 -124 79 -219 203 -219z" />
    <glyph glyph-name="Scaron" unicode="&#x160;" horiz-adv-x="600" 
d="M352 728h-114l-95 144h78l74 -89l70 89h78zM304 -12c-129 0 -221 43 -284 106l78 111c47 -49 120 -91 212 -91c79 0 116 35 116 74c0 116 -384 35 -384 286c0 111 96 203 253 203c106 0 194 -32 260 -93l-79 -106c-54 50 -126 73 -194 73c-60 0 -94 -26 -94 -66
c0 -105 383 -34 383 -283c0 -122 -88 -214 -267 -214z" />
    <glyph glyph-name="Uacute" unicode="&#xda;" horiz-adv-x="734" 
d="M538 872l-162 -144h-89l134 144h117zM367 -12c-203 0 -301 114 -301 279v400h144v-396c0 -93 54 -157 157 -157s156 64 156 157v396h145v-400c0 -165 -98 -279 -301 -279z" />
    <glyph glyph-name="Ucircumflex" unicode="&#xdb;" horiz-adv-x="734" 
d="M523 728h-78l-73 89l-71 -89h-78l92 144h114zM367 -12c-203 0 -301 114 -301 279v400h144v-396c0 -93 54 -157 157 -157s156 64 156 157v396h145v-400c0 -165 -98 -279 -301 -279z" />
    <glyph glyph-name="Udieresis" unicode="&#xdc;" horiz-adv-x="734" 
d="M543 784c0 -38 -30 -68 -68 -68c-37 0 -68 30 -68 68s31 68 68 68c38 0 68 -30 68 -68zM332 784c0 -38 -30 -68 -68 -68s-68 30 -68 68s30 68 68 68s68 -30 68 -68zM367 -12c-203 0 -301 114 -301 279v400h144v-396c0 -93 54 -157 157 -157s156 64 156 157v396h145v-400
c0 -165 -98 -279 -301 -279z" />
    <glyph glyph-name="Ugrave" unicode="&#xd9;" horiz-adv-x="734" 
d="M452 728h-89l-162 144h117zM367 -12c-203 0 -301 114 -301 279v400h144v-396c0 -93 54 -157 157 -157s156 64 156 157v396h145v-400c0 -165 -98 -279 -301 -279z" />
    <glyph glyph-name="Yacute" unicode="&#xdd;" horiz-adv-x="645" 
d="M495 872l-162 -144h-89l134 144h117zM394 0h-142v273l-256 394h162l165 -267l165 267h161l-255 -394v-273z" />
    <glyph glyph-name="Ydieresis" unicode="&#x178;" horiz-adv-x="645" 
d="M498 784c0 -38 -30 -68 -68 -68c-37 0 -68 30 -68 68s31 68 68 68c38 0 68 -30 68 -68zM287 784c0 -38 -30 -68 -68 -68s-68 30 -68 68s30 68 68 68s68 -30 68 -68zM394 0h-142v273l-256 394h162l165 -267l165 267h161l-255 -394v-273z" />
    <glyph glyph-name="Zcaron" unicode="&#x17d;" horiz-adv-x="592" 
d="M355 728h-114l-95 144h78l74 -89l70 89h78zM550 0h-508v115l315 427h-315v125h501v-114l-315 -428h322v-125z" />
    <glyph glyph-name="aacute" unicode="&#xe1;" horiz-adv-x="543" 
d="M481 0h-128v51c-33 -40 -90 -63 -153 -63c-77 0 -167 52 -167 160c0 114 90 156 167 156c65 0 121 -21 153 -59v61c0 49 -42 81 -106 81c-51 0 -99 -20 -139 -57l-50 89c59 53 135 76 211 76c111 0 212 -44 212 -183v-312zM251 74c41 0 81 14 102 42v60
c-21 28 -61 43 -102 43c-50 0 -91 -27 -91 -73s41 -72 91 -72zM443 700l-162 -144h-89l134 144h117z" />
    <glyph glyph-name="acircumflex" unicode="&#xe2;" horiz-adv-x="543" 
d="M481 0h-128v51c-33 -40 -90 -63 -153 -63c-77 0 -167 52 -167 160c0 114 90 156 167 156c65 0 121 -21 153 -59v61c0 49 -42 81 -106 81c-51 0 -99 -20 -139 -57l-50 89c59 53 135 76 211 76c111 0 212 -44 212 -183v-312zM251 74c41 0 81 14 102 42v60
c-21 28 -61 43 -102 43c-50 0 -91 -27 -91 -73s41 -72 91 -72zM423 556h-78l-73 89l-71 -89h-78l92 144h114z" />
    <glyph glyph-name="adieresis" unicode="&#xe4;" horiz-adv-x="543" 
d="M481 0h-128v51c-33 -40 -90 -63 -153 -63c-77 0 -167 52 -167 160c0 114 90 156 167 156c65 0 121 -21 153 -59v61c0 49 -42 81 -106 81c-51 0 -99 -20 -139 -57l-50 89c59 53 135 76 211 76c111 0 212 -44 212 -183v-312zM251 74c41 0 81 14 102 42v60
c-21 28 -61 43 -102 43c-50 0 -91 -27 -91 -73s41 -72 91 -72zM442 611c0 -38 -30 -68 -68 -68c-37 0 -68 30 -68 68s31 68 68 68c38 0 68 -30 68 -68zM231 611c0 -38 -30 -68 -68 -68s-68 30 -68 68s30 68 68 68s68 -30 68 -68z" />
    <glyph glyph-name="agrave" unicode="&#xe0;" horiz-adv-x="543" 
d="M481 0h-128v51c-33 -40 -90 -63 -153 -63c-77 0 -167 52 -167 160c0 114 90 156 167 156c65 0 121 -21 153 -59v61c0 49 -42 81 -106 81c-51 0 -99 -20 -139 -57l-50 89c59 53 135 76 211 76c111 0 212 -44 212 -183v-312zM251 74c41 0 81 14 102 42v60
c-21 28 -61 43 -102 43c-50 0 -91 -27 -91 -73s41 -72 91 -72zM352 556h-89l-162 144h117z" />
    <glyph glyph-name="aring" unicode="&#xe5;" horiz-adv-x="543" 
d="M481 0h-128v51c-33 -40 -90 -63 -153 -63c-77 0 -167 52 -167 160c0 114 90 156 167 156c65 0 121 -21 153 -59v61c0 49 -42 81 -106 81c-51 0 -99 -20 -139 -57l-50 89c59 53 135 76 211 76c111 0 212 -44 212 -183v-312zM251 74c41 0 81 14 102 42v60
c-21 28 -61 43 -102 43c-50 0 -91 -27 -91 -73s41 -72 91 -72zM271 541c-57 0 -105 48 -105 105c0 58 48 105 105 105c58 0 104 -47 104 -105c0 -57 -46 -105 -104 -105zM271 599c26 0 46 21 46 47s-20 47 -46 47c-25 0 -47 -21 -47 -47s22 -47 47 -47z" />
    <glyph glyph-name="atilde" unicode="&#xe3;" horiz-adv-x="543" 
d="M481 0h-128v51c-33 -40 -90 -63 -153 -63c-77 0 -167 52 -167 160c0 114 90 156 167 156c65 0 121 -21 153 -59v61c0 49 -42 81 -106 81c-51 0 -99 -20 -139 -57l-50 89c59 53 135 76 211 76c111 0 212 -44 212 -183v-312zM251 74c41 0 81 14 102 42v60
c-21 28 -61 43 -102 43c-50 0 -91 -27 -91 -73s41 -72 91 -72zM327 554c-68 0 -79 68 -117 68c-20 0 -36 -19 -36 -62h-67c0 85 38 134 108 134c67 0 78 -67 116 -67c20 0 36 19 36 61h67c0 -85 -37 -134 -107 -134z" />
    <glyph glyph-name="ccedilla" unicode="&#xe7;" horiz-adv-x="499" 
d="M291 -193c-48 0 -89 14 -110 31l25 51c25 -19 54 -29 82 -29c26 0 51 11 51 33c0 16 -10 26 -29 26c-13 0 -24 -6 -32 -14l-46 26l21 59c-130 15 -221 115 -221 252c0 148 108 253 256 253c99 0 159 -43 191 -87l-83 -78c-23 34 -58 52 -102 52c-77 0 -131 -56 -131 -140
s54 -141 131 -141c44 0 79 20 102 53l83 -78c-29 -40 -81 -79 -164 -87l-15 -38c10 7 22 10 35 10c37 0 67 -28 67 -70c0 -53 -50 -84 -111 -84z" />
    <glyph glyph-name="eacute" unicode="&#xe9;" horiz-adv-x="553" 
d="M290 -12c-147 0 -258 99 -258 254c0 140 104 253 250 253c145 0 242 -108 242 -265v-30h-359c9 -59 57 -108 139 -108c41 0 97 17 128 47l57 -84c-48 -44 -124 -67 -199 -67zM402 288c-4 46 -36 103 -120 103c-79 0 -113 -55 -118 -103h238zM454 700l-162 -144h-89
l134 144h117z" />
    <glyph glyph-name="ecircumflex" unicode="&#xea;" horiz-adv-x="553" 
d="M290 -12c-147 0 -258 99 -258 254c0 140 104 253 250 253c145 0 242 -108 242 -265v-30h-359c9 -59 57 -108 139 -108c41 0 97 17 128 47l57 -84c-48 -44 -124 -67 -199 -67zM402 288c-4 46 -36 103 -120 103c-79 0 -113 -55 -118 -103h238zM434 556h-78l-73 89l-71 -89
h-78l92 144h114z" />
    <glyph glyph-name="edieresis" unicode="&#xeb;" horiz-adv-x="553" 
d="M290 -12c-147 0 -258 99 -258 254c0 140 104 253 250 253c145 0 242 -108 242 -265v-30h-359c9 -59 57 -108 139 -108c41 0 97 17 128 47l57 -84c-48 -44 -124 -67 -199 -67zM402 288c-4 46 -36 103 -120 103c-79 0 -113 -55 -118 -103h238zM457 611
c0 -38 -30 -68 -68 -68c-37 0 -68 30 -68 68s31 68 68 68c38 0 68 -30 68 -68zM246 611c0 -38 -30 -68 -68 -68s-68 30 -68 68s30 68 68 68s68 -30 68 -68z" />
    <glyph glyph-name="egrave" unicode="&#xe8;" horiz-adv-x="553" 
d="M290 -12c-147 0 -258 99 -258 254c0 140 104 253 250 253c145 0 242 -108 242 -265v-30h-359c9 -59 57 -108 139 -108c41 0 97 17 128 47l57 -84c-48 -44 -124 -67 -199 -67zM402 288c-4 46 -36 103 -120 103c-79 0 -113 -55 -118 -103h238zM365 556h-89l-162 144h117z
" />
    <glyph glyph-name="iacute" unicode="&#xed;" horiz-adv-x="253" 
d="M296 700l-162 -144h-89l134 144h117zM190 0h-127v483h127v-483z" />
    <glyph glyph-name="icircumflex" unicode="&#xee;" horiz-adv-x="253" 
d="M277 556h-78l-73 89l-71 -89h-78l92 144h114zM190 0h-127v483h127v-483z" />
    <glyph glyph-name="idieresis" unicode="&#xef;" horiz-adv-x="253" 
d="M300 611c0 -38 -30 -68 -68 -68c-37 0 -68 30 -68 68s31 68 68 68c38 0 68 -30 68 -68zM89 611c0 -38 -30 -68 -68 -68s-68 30 -68 68s30 68 68 68s68 -30 68 -68zM190 0h-127v483h127v-483z" />
    <glyph glyph-name="igrave" unicode="&#xec;" horiz-adv-x="253" 
d="M208 556h-89l-162 144h117zM190 0h-127v483h127v-483z" />
    <glyph glyph-name="ntilde" unicode="&#xf1;" horiz-adv-x="579" 
d="M524 0h-128v292c0 67 -35 90 -89 90c-50 0 -88 -28 -110 -56v-326h-127v483h127v-62c31 36 91 74 169 74c107 0 158 -60 158 -154v-341zM347 554c-68 0 -79 68 -117 68c-20 0 -36 -19 -36 -62h-67c0 85 38 134 108 134c67 0 78 -67 116 -67c20 0 36 19 36 61h67
c0 -85 -37 -134 -107 -134z" />
    <glyph glyph-name="oacute" unicode="&#xf3;" horiz-adv-x="575" 
d="M287 -12c-159 0 -255 117 -255 254s96 253 255 253c160 0 256 -116 256 -253s-96 -254 -256 -254zM287 101c80 0 124 65 124 141c0 75 -44 140 -124 140c-79 0 -123 -65 -123 -140c0 -76 44 -141 123 -141zM457 700l-162 -144h-89l134 144h117z" />
    <glyph glyph-name="ocircumflex" unicode="&#xf4;" horiz-adv-x="575" 
d="M287 -12c-159 0 -255 117 -255 254s96 253 255 253c160 0 256 -116 256 -253s-96 -254 -256 -254zM287 101c80 0 124 65 124 141c0 75 -44 140 -124 140c-79 0 -123 -65 -123 -140c0 -76 44 -141 123 -141zM438 556h-78l-73 89l-71 -89h-78l92 144h114z" />
    <glyph glyph-name="odieresis" unicode="&#xf6;" horiz-adv-x="575" 
d="M287 -12c-159 0 -255 117 -255 254s96 253 255 253c160 0 256 -116 256 -253s-96 -254 -256 -254zM287 101c80 0 124 65 124 141c0 75 -44 140 -124 140c-79 0 -123 -65 -123 -140c0 -76 44 -141 123 -141zM461 611c0 -38 -30 -68 -68 -68c-37 0 -68 30 -68 68
s31 68 68 68c38 0 68 -30 68 -68zM250 611c0 -38 -30 -68 -68 -68s-68 30 -68 68s30 68 68 68s68 -30 68 -68z" />
    <glyph glyph-name="ograve" unicode="&#xf2;" horiz-adv-x="575" 
d="M287 -12c-159 0 -255 117 -255 254s96 253 255 253c160 0 256 -116 256 -253s-96 -254 -256 -254zM287 101c80 0 124 65 124 141c0 75 -44 140 -124 140c-79 0 -123 -65 -123 -140c0 -76 44 -141 123 -141zM370 556h-89l-162 144h117z" />
    <glyph glyph-name="otilde" unicode="&#xf5;" horiz-adv-x="575" 
d="M287 -12c-159 0 -255 117 -255 254s96 253 255 253c160 0 256 -116 256 -253s-96 -254 -256 -254zM287 101c80 0 124 65 124 141c0 75 -44 140 -124 140c-79 0 -123 -65 -123 -140c0 -76 44 -141 123 -141zM344 554c-68 0 -79 68 -117 68c-20 0 -36 -19 -36 -62h-67
c0 85 38 134 108 134c67 0 78 -67 116 -67c20 0 36 19 36 61h67c0 -85 -37 -134 -107 -134z" />
    <glyph glyph-name="scaron" unicode="&#x161;" horiz-adv-x="477" 
d="M237 -12c-84 0 -165 28 -216 75l55 92c36 -34 107 -67 167 -67c55 0 81 21 81 51c0 79 -286 14 -286 204c0 81 70 152 198 152c81 0 146 -28 194 -66l-51 -90c-29 30 -84 56 -143 56c-46 0 -76 -20 -76 -47c0 -71 287 -11 287 -206c0 -89 -76 -154 -210 -154zM296 556
h-114l-95 144h78l74 -89l70 89h78z" />
    <glyph glyph-name="uacute" unicode="&#xfa;" horiz-adv-x="579" 
d="M516 0h-127v61c-33 -36 -91 -73 -170 -73c-106 0 -156 58 -156 152v343h127v-293c0 -67 35 -89 89 -89c49 0 88 27 110 55v327h127v-483zM460 700l-162 -144h-89l134 144h117z" />
    <glyph glyph-name="ucircumflex" unicode="&#xfb;" horiz-adv-x="579" 
d="M516 0h-127v61c-33 -36 -91 -73 -170 -73c-106 0 -156 58 -156 152v343h127v-293c0 -67 35 -89 89 -89c49 0 88 27 110 55v327h127v-483zM441 556h-78l-73 89l-71 -89h-78l92 144h114z" />
    <glyph glyph-name="udieresis" unicode="&#xfc;" horiz-adv-x="579" 
d="M516 0h-127v61c-33 -36 -91 -73 -170 -73c-106 0 -156 58 -156 152v343h127v-293c0 -67 35 -89 89 -89c49 0 88 27 110 55v327h127v-483zM466 611c0 -38 -30 -68 -68 -68c-37 0 -68 30 -68 68s31 68 68 68c38 0 68 -30 68 -68zM255 611c0 -38 -30 -68 -68 -68
s-68 30 -68 68s30 68 68 68s68 -30 68 -68z" />
    <glyph glyph-name="ugrave" unicode="&#xf9;" horiz-adv-x="579" 
d="M516 0h-127v61c-33 -36 -91 -73 -170 -73c-106 0 -156 58 -156 152v343h127v-293c0 -67 35 -89 89 -89c49 0 88 27 110 55v327h127v-483zM373 556h-89l-162 144h117z" />
    <glyph glyph-name="yacute" unicode="&#xfd;" horiz-adv-x="513" 
d="M47 -188l18 113c11 -5 28 -8 40 -8c33 0 55 9 67 35l18 42l-196 489h136l126 -336l127 336h136l-227 -562c-36 -91 -100 -115 -183 -117c-14 0 -47 3 -62 8zM426 700l-162 -144h-89l134 144h117z" />
    <glyph glyph-name="ydieresis" unicode="&#xff;" horiz-adv-x="513" 
d="M47 -188l18 113c11 -5 28 -8 40 -8c33 0 55 9 67 35l18 42l-196 489h136l126 -336l127 336h136l-227 -562c-36 -91 -100 -115 -183 -117c-14 0 -47 3 -62 8zM430 611c0 -38 -30 -68 -68 -68c-37 0 -68 30 -68 68s31 68 68 68c38 0 68 -30 68 -68zM219 611
c0 -38 -30 -68 -68 -68s-68 30 -68 68s30 68 68 68s68 -30 68 -68z" />
    <glyph glyph-name="zcaron" unicode="&#x17e;" horiz-adv-x="479" 
d="M437 0h-395v95l218 277h-218v111h391v-91l-222 -281h226v-111zM292 556h-114l-95 144h78l74 -89l70 89h78z" />
    <glyph glyph-name="dollarsuperior" unicode="&#xf6e4;" horiz-adv-x="383" 
d="M166 361v53c-67 5 -117 30 -149 65l53 62c24 -24 58 -45 96 -53v95c-67 15 -141 37 -141 124c0 58 52 112 141 119v56h62v-58c57 -7 99 -28 124 -55l-54 -56c-18 17 -43 32 -70 39v-88c66 -15 138 -38 138 -123c0 -69 -49 -115 -138 -125v-55h-62zM123 716
c0 -19 17 -29 43 -37v75c-27 -5 -43 -20 -43 -38zM268 529c0 20 -16 31 -40 39v-78c26 7 40 21 40 39z" />
    <glyph glyph-name="parenleftsuperior" unicode="&#x207d;" horiz-adv-x="192" 
d="M182 379l-57 -23c-62 60 -102 168 -102 265c0 96 40 204 102 265l57 -23c-42 -79 -61 -147 -61 -242c0 -94 19 -164 61 -242z" />
    <glyph glyph-name="parenrightsuperior" unicode="&#x207e;" horiz-adv-x="192" 
d="M175 621c0 -97 -40 -204 -102 -265l-57 23c42 78 61 148 61 242c0 95 -19 164 -61 242l57 23c62 -61 102 -169 102 -265z" />
    <glyph glyph-name="commasuperior" unicode="&#xf6e2;" horiz-adv-x="157" 
d="M130 461c0 -48 -21 -92 -63 -121c-12 10 -24 19 -36 29c16 7 45 33 48 53c-1 0 -3 -1 -5 -1c-25 0 -50 21 -50 49c0 29 23 53 53 53s53 -25 53 -62z" />
    <glyph glyph-name="periodsuperior" unicode="&#xf6e8;" horiz-adv-x="158" 
d="M132 470c0 -28 -24 -52 -53 -52c-28 0 -53 24 -53 52c0 29 25 53 53 53c29 0 53 -24 53 -53z" />
    <glyph glyph-name="asuperior" unicode="&#xf6e9;" horiz-adv-x="385" 
d="M335 326h-92v32c-18 -20 -51 -40 -102 -40c-53 0 -110 34 -110 104s57 101 110 101c51 0 84 -18 102 -37v39c0 33 -28 54 -69 54c-31 0 -66 -14 -92 -41l-35 60c40 34 93 50 143 50c74 0 145 -28 145 -125v-197zM179 376c25 0 51 10 64 28v36c-13 17 -39 27 -64 27
c-30 0 -57 -16 -57 -45c0 -31 27 -46 57 -46z" />
    <glyph glyph-name="bsuperior" unicode="&#xf6ea;" horiz-adv-x="413" 
d="M211 391c45 0 78 36 78 92s-33 92 -78 92c-25 0 -54 -12 -68 -29v-126c14 -18 43 -29 68 -29zM143 326h-93v434h93v-159c26 32 60 47 97 47c81 0 143 -62 143 -165c0 -106 -63 -165 -143 -165c-37 0 -71 16 -97 46v-38z" />
    <glyph glyph-name="centsuperior" unicode="&#xf6e0;" horiz-adv-x="312" 
d="M151 416v55c-76 12 -130 70 -130 150s54 138 130 149v45h62v-45c45 -7 73 -30 89 -53l-59 -47c-8 12 -18 22 -30 28v-155c12 6 22 16 30 29l59 -47c-16 -23 -44 -46 -89 -54v-55h-62zM109 621c0 -37 17 -64 42 -77v153c-25 -12 -42 -39 -42 -76z" />
    <glyph glyph-name="dsuperior" unicode="&#xf6eb;" horiz-adv-x="414" 
d="M363 326h-92v38c-26 -30 -60 -46 -98 -46c-79 0 -143 59 -143 165c0 103 62 165 143 165c37 0 71 -15 97 -47v159h93v-434zM202 391c26 0 55 11 69 29v126c-14 17 -43 29 -69 29c-45 0 -77 -36 -77 -92s32 -92 77 -92z" />
    <glyph glyph-name="esuperior" unicode="&#xf6ec;" horiz-adv-x="391" 
d="M204 318c-98 0 -174 64 -174 165c0 91 70 165 169 165c94 0 162 -69 162 -175v-20h-235c8 -38 38 -66 87 -66c26 0 63 10 83 27l40 -54c-31 -28 -83 -42 -132 -42zM273 517c-3 29 -23 65 -75 65c-48 0 -69 -34 -73 -65h148z" />
    <glyph glyph-name="isuperior" unicode="&#xf6ed;" horiz-adv-x="184" 
d="M92 671c-29 0 -53 24 -53 54c0 29 24 54 53 54c30 0 54 -25 54 -54c0 -30 -24 -54 -54 -54zM138 326h-92v314h92v-314z" />
    <glyph glyph-name="lsuperior" unicode="&#xf6ee;" horiz-adv-x="193" 
d="M143 326h-93v434h93v-434z" />
    <glyph glyph-name="msuperior" unicode="&#xf6ef;" horiz-adv-x="596" 
d="M545 326h-92v196c0 28 -12 48 -46 48c-28 0 -52 -18 -63 -33v-211h-92v196c0 28 -13 48 -47 48c-27 0 -51 -18 -62 -33v-211h-93v314h93v-39c13 18 55 47 105 47c47 0 77 -21 91 -57c18 28 59 57 111 57c59 0 95 -31 95 -98v-224z" />
    <glyph glyph-name="nsuperior" unicode="&#x207f;" horiz-adv-x="412" 
d="M362 326h-93v186c0 43 -22 58 -57 58c-32 0 -56 -17 -69 -33v-211h-93v314h93v-39c20 23 58 47 112 47c78 0 107 -45 107 -104v-218z" />
    <glyph glyph-name="osuperior" unicode="&#xf6f0;" horiz-adv-x="405" 
d="M202 318c-106 0 -172 76 -172 165s66 165 172 165c108 0 173 -76 173 -165s-65 -165 -173 -165zM202 392c49 0 79 36 79 91s-30 89 -79 89c-48 0 -77 -34 -77 -89s29 -91 77 -91z" />
    <glyph glyph-name="rsuperior" unicode="&#xf6f1;" horiz-adv-x="258" 
d="M143 326h-93v314h93v-40c22 26 63 49 102 49v-83l-24 2c-29 0 -65 -13 -78 -32v-210z" />
    <glyph glyph-name="ssuperior" unicode="&#xf6f2;" horiz-adv-x="336" 
d="M164 318c-65 0 -113 24 -145 53l37 57c24 -24 70 -47 109 -47c34 0 53 12 53 32c0 59 -190 15 -190 139c0 49 48 96 134 96c65 0 106 -21 130 -44l-34 -54c-20 19 -56 35 -93 35c-30 0 -49 -12 -49 -31c0 -52 190 -7 190 -133c0 -58 -51 -103 -142 -103z" />
    <glyph glyph-name="tsuperior" unicode="&#xf6f3;" horiz-adv-x="235" 
d="M157 318c-62 0 -96 31 -96 90v167h-54v65h54v86h92v-86h66v-65h-66v-150c0 -19 11 -34 29 -34c12 0 24 5 28 9c6 -20 13 -40 19 -61c-12 -11 -36 -21 -72 -21z" />
    <glyph glyph-name="parenleftinferior" unicode="&#x208d;" horiz-adv-x="192" 
d="M182 -188l-57 -23c-62 60 -102 168 -102 265c0 96 40 204 102 265l57 -23c-42 -79 -61 -147 -61 -242c0 -94 19 -164 61 -242z" />
    <glyph glyph-name="parenrightinferior" unicode="&#x208e;" horiz-adv-x="192" 
d="M175 54c0 -97 -40 -204 -102 -265l-57 23c42 78 61 148 61 242c0 95 -19 164 -61 242l57 23c62 -61 102 -169 102 -265z" />
    <glyph glyph-name="hyphensuperior" unicode="&#xf6e6;" horiz-adv-x="183" 
d="M165 584h-147v72h147v-72z" />
    <glyph glyph-name="colonmonetary" unicode="&#x20a1;" horiz-adv-x="696" 
d="M398 -12c-4 0 -7 1 -10 1l-29 -89h-73l32 96c-22 4 -43 10 -63 18l-37 -114h-73l48 145c-92 60 -151 161 -151 288c0 206 155 345 356 345h5l30 90h72l-32 -98c22 -5 43 -12 61 -20l40 118h72l-52 -155c35 -28 62 -63 82 -98l-122 -60c-2 4 -5 8 -8 12l-116 -350
c54 11 100 49 124 94l122 -59c-47 -83 -132 -164 -278 -164zM188 333c0 -59 19 -110 51 -148l121 364c-102 -17 -172 -104 -172 -216zM297 138c18 -10 39 -17 61 -21l134 406c-18 12 -38 20 -60 25z" />
    <glyph glyph-name="rupiah" unicode="&#xf6dd;" horiz-adv-x="1178" 
d="M607 0h-164l-131 237h-104v-237h-142v667h312c139 0 225 -91 225 -215c0 -117 -75 -181 -147 -198zM358 362c56 0 99 34 99 91c0 55 -43 89 -99 89h-150v-180h150zM933 -12c-57 0 -109 24 -149 74v-246h-127v667h127v-61c37 47 90 73 149 73c124 0 214 -92 214 -253
s-90 -254 -214 -254zM893 101c73 0 123 57 123 141c0 83 -50 140 -123 140c-41 0 -87 -23 -109 -55v-170c21 -31 68 -56 109 -56z" />
    <glyph glyph-name="hypheninferior" unicode="&#xf6e5;" horiz-adv-x="183" 
d="M165 17h-147v72h147v-72z" />
    <glyph glyph-name="oneeighth" unicode="&#x215b;" horiz-adv-x="867" 
d="M641 667l-427 -667h-76l426 667h77zM837 105c0 -82 -84 -112 -170 -112c-84 0 -169 30 -169 112c0 47 42 88 95 101c-49 12 -88 45 -88 93c0 78 85 107 162 107c78 0 164 -29 164 -107c0 -48 -39 -81 -88 -93c52 -13 94 -54 94 -101zM735 286c0 30 -27 47 -68 47
c-39 0 -67 -17 -67 -47c0 -35 51 -47 67 -50c18 3 68 15 68 50zM742 114c0 41 -57 56 -75 58c-17 -2 -74 -17 -74 -58c0 -31 32 -48 74 -48c43 0 75 17 75 48zM226 267h-97v277l-67 -69l-55 58l136 134h83v-400z" />
    <glyph glyph-name="threeeighths" unicode="&#x215c;" horiz-adv-x="954" 
d="M729 667l-427 -667h-76l426 667h77zM925 105c0 -82 -84 -112 -170 -112c-84 0 -169 30 -169 112c0 47 42 88 95 101c-49 12 -88 45 -88 93c0 78 85 107 162 107c78 0 164 -29 164 -107c0 -48 -39 -81 -88 -93c52 -13 94 -54 94 -101zM823 286c0 30 -27 47 -68 47
c-39 0 -67 -17 -67 -47c0 -35 51 -47 67 -50c18 3 68 15 68 50zM830 114c0 41 -57 56 -75 58c-17 -2 -74 -17 -74 -58c0 -31 32 -48 74 -48c43 0 75 17 75 48zM363 378c0 -69 -65 -118 -166 -118c-77 0 -134 27 -165 63l48 63c30 -33 77 -49 114 -49c48 0 73 19 73 47
c0 39 -37 49 -88 49c-18 0 -38 0 -44 -1v76c8 -1 27 -1 43 -1c53 0 83 12 83 45c0 30 -32 44 -73 44c-40 0 -76 -13 -106 -43l-45 56c34 37 86 64 161 64c101 0 158 -44 158 -109c0 -49 -42 -83 -89 -91c42 -3 96 -35 96 -95z" />
    <glyph glyph-name="fiveeighths" unicode="&#x215d;" horiz-adv-x="948" 
d="M722 667l-427 -667h-76l426 667h77zM918 105c0 -82 -84 -112 -170 -112c-84 0 -169 30 -169 112c0 47 42 88 95 101c-49 12 -88 45 -88 93c0 78 85 107 162 107c78 0 164 -29 164 -107c0 -48 -39 -81 -88 -93c52 -13 94 -54 94 -101zM816 286c0 30 -27 47 -68 47
c-39 0 -67 -17 -67 -47c0 -35 51 -47 67 -50c18 3 68 15 68 50zM823 114c0 41 -57 56 -75 58c-17 -2 -74 -17 -74 -58c0 -31 32 -48 74 -48c43 0 75 17 75 48zM363 399c0 -82 -65 -139 -168 -139c-71 0 -127 24 -161 63l52 64c28 -33 68 -50 109 -50c47 0 74 27 74 59
c0 35 -26 60 -71 60c-34 0 -61 -11 -85 -38l-67 22v227h290v-77h-193v-97c19 19 52 33 90 33c69 0 130 -42 130 -127z" />
    <glyph glyph-name="seveneighths" unicode="&#x215e;" horiz-adv-x="873" 
d="M647 667l-427 -667h-76l426 667h77zM843 105c0 -82 -84 -112 -170 -112c-84 0 -169 30 -169 112c0 47 42 88 95 101c-49 12 -88 45 -88 93c0 78 85 107 162 107c78 0 164 -29 164 -107c0 -48 -39 -81 -88 -93c52 -13 94 -54 94 -101zM741 286c0 30 -27 47 -68 47
c-39 0 -67 -17 -67 -47c0 -35 51 -47 67 -50c18 3 68 15 68 50zM748 114c0 41 -57 56 -75 58c-17 -2 -74 -17 -74 -58c0 -31 32 -48 74 -48c43 0 75 17 75 48zM341 601l-148 -334h-106l150 323h-211v77h315v-66z" />
    <glyph glyph-name="onethird" unicode="&#x2153;" horiz-adv-x="867" 
d="M641 667l-427 -667h-76l426 667h77zM832 111c0 -69 -65 -118 -166 -118c-77 0 -134 27 -165 63l48 63c30 -33 77 -49 114 -49c48 0 73 19 73 47c0 39 -37 49 -88 49c-18 0 -38 0 -44 -1v76c8 -1 27 -1 43 -1c53 0 83 12 83 45c0 30 -32 44 -73 44c-40 0 -76 -13 -106 -43
l-45 56c34 37 86 64 161 64c101 0 158 -44 158 -109c0 -49 -42 -83 -89 -91c42 -3 96 -35 96 -95zM226 267h-97v277l-67 -69l-55 58l136 134h83v-400z" />
    <glyph glyph-name="twothirds" unicode="&#x2154;" horiz-adv-x="954" 
d="M729 667l-427 -667h-76l426 667h77zM920 111c0 -69 -65 -118 -166 -118c-77 0 -134 27 -165 63l48 63c30 -33 77 -49 114 -49c48 0 73 19 73 47c0 39 -37 49 -88 49c-18 0 -38 0 -44 -1v76c8 -1 27 -1 43 -1c53 0 83 12 83 45c0 30 -32 44 -73 44c-40 0 -76 -13 -106 -43
l-45 56c34 37 86 64 161 64c101 0 158 -44 158 -109c0 -49 -42 -83 -89 -91c42 -3 96 -35 96 -95zM361 267h-315v70c173 121 216 160 216 204c0 37 -30 55 -68 55c-46 0 -89 -25 -109 -49l-50 60c42 47 106 66 161 66c92 0 161 -44 161 -124c0 -66 -56 -123 -172 -205h176
v-77z" />
    <glyph glyph-name="zerosuperior" unicode="&#x2070;" 
d="M371 621c0 -104 -53 -207 -172 -207s-173 103 -173 207s54 206 173 206s172 -102 172 -206zM274 621c0 78 -21 129 -75 129s-76 -51 -76 -129s22 -130 76 -130s75 52 75 130z" />
    <glyph glyph-name="foursuperior" unicode="&#x2074;" 
d="M373 507h-52v-86h-96v86h-196v65l158 249h134v-239h52v-75zM225 582v158l-101 -158h101z" />
    <glyph glyph-name="fivesuperior" unicode="&#x2075;" 
d="M363 553c0 -82 -65 -139 -168 -139c-71 0 -127 24 -161 63l52 64c28 -33 68 -50 109 -50c47 0 74 27 74 59c0 35 -26 60 -71 60c-34 0 -61 -11 -85 -38l-67 22v227h290v-77h-193v-97c19 19 52 33 90 33c69 0 130 -42 130 -127z" />
    <glyph glyph-name="sixsuperior" unicode="&#x2076;" 
d="M370 553c0 -80 -66 -139 -160 -139c-127 0 -182 92 -182 206c0 125 74 207 198 207c48 0 92 -15 122 -39l-41 -68c-24 21 -46 30 -81 30c-63 0 -101 -48 -102 -105c0 -3 0 -6 1 -9c21 27 60 50 103 50c75 0 142 -48 142 -133zM273 549c0 44 -37 62 -72 62
c-28 0 -56 -11 -76 -35c3 -42 25 -85 81 -85c42 0 67 30 67 58z" />
    <glyph glyph-name="sevensuperior" unicode="&#x2077;" horiz-adv-x="371" 
d="M341 755l-148 -334h-106l150 323h-211v77h315v-66z" />
    <glyph glyph-name="eightsuperior" unicode="&#x2078;" 
d="M368 526c0 -82 -84 -112 -170 -112c-84 0 -169 30 -169 112c0 47 42 88 95 101c-49 12 -88 45 -88 93c0 78 85 107 162 107c78 0 164 -29 164 -107c0 -48 -39 -81 -88 -93c52 -13 94 -54 94 -101zM266 707c0 30 -27 47 -68 47c-39 0 -67 -17 -67 -47c0 -35 51 -47 67 -50
c18 3 68 15 68 50zM273 535c0 41 -57 56 -75 58c-17 -2 -74 -17 -74 -58c0 -31 32 -48 74 -48c43 0 75 17 75 48z" />
    <glyph glyph-name="ninesuperior" unicode="&#x2079;" 
d="M28 688c0 80 65 139 161 139c126 0 181 -92 181 -206c0 -125 -74 -207 -197 -207c-49 0 -92 15 -123 39l42 68c22 -21 46 -30 81 -30c60 0 100 45 100 105v9c-21 -27 -60 -50 -102 -50c-74 0 -143 48 -143 133zM125 692c0 -44 37 -62 72 -62c28 0 57 11 76 36
c-3 41 -25 84 -79 84c-43 0 -69 -30 -69 -58z" />
    <glyph glyph-name="zeroinferior" unicode="&#x2080;" 
d="M371 54c0 -104 -53 -207 -172 -207s-173 103 -173 207s54 206 173 206s172 -102 172 -206zM274 54c0 78 -21 129 -75 129s-76 -51 -76 -129s22 -130 76 -130s75 52 75 130z" />
    <glyph glyph-name="oneinferior" unicode="&#x2081;" horiz-adv-x="286" 
d="M226 -146h-97v277l-67 -69l-55 58l136 134h83v-400z" />
    <glyph glyph-name="twoinferior" unicode="&#x2082;" 
d="M361 -146h-315v70c173 121 216 160 216 204c0 37 -30 55 -68 55c-46 0 -89 -25 -109 -49l-50 60c42 47 106 66 161 66c92 0 161 -44 161 -124c0 -66 -56 -123 -172 -205h176v-77z" />
    <glyph glyph-name="threeinferior" unicode="&#x2083;" 
d="M363 -35c0 -69 -65 -118 -166 -118c-77 0 -134 27 -165 63l48 63c30 -33 77 -49 114 -49c48 0 73 19 73 47c0 39 -37 49 -88 49c-18 0 -38 0 -44 -1v76c8 -1 27 -1 43 -1c53 0 83 12 83 45c0 30 -32 44 -73 44c-40 0 -76 -13 -106 -43l-45 56c34 37 86 64 161 64
c101 0 158 -44 158 -109c0 -49 -42 -83 -89 -91c42 -3 96 -35 96 -95z" />
    <glyph glyph-name="fourinferior" unicode="&#x2084;" 
d="M373 -60h-52v-86h-96v86h-196v65l158 249h134v-239h52v-75zM225 15v158l-101 -158h101z" />
    <glyph glyph-name="fiveinferior" unicode="&#x2085;" 
d="M363 -14c0 -82 -65 -139 -168 -139c-71 0 -127 24 -161 63l52 64c28 -33 68 -50 109 -50c47 0 74 27 74 59c0 35 -26 60 -71 60c-34 0 -61 -11 -85 -38l-67 22v227h290v-77h-193v-97c19 19 52 33 90 33c69 0 130 -42 130 -127z" />
    <glyph glyph-name="sixinferior" unicode="&#x2086;" 
d="M370 -14c0 -80 -66 -139 -160 -139c-127 0 -182 92 -182 206c0 125 74 207 198 207c48 0 92 -15 122 -39l-41 -68c-24 21 -46 30 -81 30c-63 0 -101 -48 -102 -105c0 -3 0 -6 1 -9c21 27 60 50 103 50c75 0 142 -48 142 -133zM273 -18c0 44 -37 62 -72 62
c-28 0 -56 -11 -76 -35c3 -42 25 -85 81 -85c42 0 67 30 67 58z" />
    <glyph glyph-name="seveninferior" unicode="&#x2087;" horiz-adv-x="371" 
d="M341 188l-148 -334h-106l150 323h-211v77h315v-66z" />
    <glyph glyph-name="eightinferior" unicode="&#x2088;" 
d="M368 -41c0 -82 -84 -112 -170 -112c-84 0 -169 30 -169 112c0 47 42 88 95 101c-49 12 -88 45 -88 93c0 78 85 107 162 107c78 0 164 -29 164 -107c0 -48 -39 -81 -88 -93c52 -13 94 -54 94 -101zM266 140c0 30 -27 47 -68 47c-39 0 -67 -17 -67 -47c0 -35 51 -47 67 -50
c18 3 68 15 68 50zM273 -32c0 41 -57 56 -75 58c-17 -2 -74 -17 -74 -58c0 -31 32 -48 74 -48c43 0 75 17 75 48z" />
    <glyph glyph-name="nineinferior" unicode="&#x2089;" 
d="M28 121c0 80 65 139 161 139c126 0 181 -92 181 -206c0 -125 -74 -207 -197 -207c-49 0 -92 15 -123 39l42 68c22 -21 46 -30 81 -30c60 0 100 45 100 105v9c-21 -27 -60 -50 -102 -50c-74 0 -143 48 -143 133zM125 125c0 -44 37 -62 72 -62c28 0 57 11 76 36
c-3 41 -25 84 -79 84c-43 0 -69 -30 -69 -58z" />
    <glyph glyph-name="centinferior" unicode="&#xf6df;" horiz-adv-x="312" 
d="M151 -151v56c-76 11 -130 69 -130 149s54 138 130 149v45h62v-45c45 -7 73 -30 89 -53l-59 -47c-8 12 -18 22 -30 28v-154c12 6 22 16 30 28l59 -47c-16 -23 -44 -46 -89 -53v-56h-62zM109 54c0 -37 17 -64 42 -76v152c-25 -12 -42 -39 -42 -76z" />
    <glyph glyph-name="dollarinferior" unicode="&#xf6e3;" horiz-adv-x="383" 
d="M166 -206v54c-67 5 -117 29 -149 64l53 62c24 -23 58 -45 96 -52v94c-67 15 -141 37 -141 124c0 58 52 112 141 119v56h62v-58c57 -7 99 -28 124 -55l-54 -56c-18 17 -43 32 -70 39v-88c66 -15 138 -38 138 -123c0 -69 -49 -115 -138 -125v-55h-62zM123 149
c0 -19 17 -29 43 -37v75c-27 -5 -43 -20 -43 -38zM268 -38c0 20 -16 31 -40 39v-78c26 7 40 22 40 39z" />
    <glyph glyph-name="periodinferior" unicode="&#xf6e7;" horiz-adv-x="158" 
d="M132 -97c0 -28 -24 -52 -53 -52c-28 0 -53 24 -53 52c0 29 25 53 53 53c29 0 53 -24 53 -53z" />
    <glyph glyph-name="commainferior" unicode="&#xf6e1;" horiz-adv-x="157" 
d="M130 -106c0 -48 -21 -92 -63 -121c-12 10 -24 19 -36 29c16 7 45 33 48 53c-1 0 -3 -1 -5 -1c-25 0 -50 21 -50 49c0 29 23 53 53 53s53 -25 53 -62z" />
    <glyph glyph-name="notequal" unicode="&#x2260;" horiz-adv-x="504" 
d="M137 93h-76l68 108h-100v78h150l70 110h-220v79h270l68 106h77l-68 -106h99v-79h-149l-70 -110h219v-78h-269z" />
    <glyph glyph-name="infinity" unicode="&#x221e;" horiz-adv-x="690" 
d="M196 159c-119 0 -167 92 -167 177s48 177 167 177c67 0 121 -45 149 -101c28 56 82 101 149 101c120 0 167 -92 167 -178c0 -85 -47 -176 -167 -176c-67 0 -121 44 -149 99c-28 -55 -82 -99 -149 -99zM484 237c54 0 92 39 92 98c0 60 -38 100 -92 100
c-49 0 -84 -47 -103 -100c19 -53 54 -98 103 -98zM207 236c49 0 84 47 102 100c-18 53 -53 99 -102 99c-55 0 -93 -40 -93 -99c0 -60 38 -100 93 -100z" />
    <glyph glyph-name="lessequal" unicode="&#x2264;" horiz-adv-x="504" 
d="M475 110l-446 198v92l446 200v-94l-355 -152l355 -151v-93zM475 0h-446v79h446v-79z" />
    <glyph glyph-name="greaterequal" unicode="&#x2265;" horiz-adv-x="504" 
d="M475 308l-447 -198v93l356 151l-356 152v94l447 -200v-92zM475 0h-446v79h446v-79z" />
    <glyph glyph-name="partialdiff" unicode="&#x2202;" horiz-adv-x="575" 
d="M287 -12c-159 0 -255 108 -255 236c0 129 91 236 214 236c67 0 119 -24 154 -79c-35 89 -105 172 -220 232l102 71c126 -75 261 -236 261 -428c0 -160 -96 -268 -256 -268zM287 101c80 0 124 54 124 123s-44 124 -124 124c-79 0 -123 -55 -123 -124s44 -123 123 -123z
" />
    <glyph glyph-name="summation" unicode="&#x2211;" horiz-adv-x="586" 
d="M423 297l-199 245h317v125h-495v-124l202 -247l-203 -261v-125h496v125h-324z" />
    <glyph glyph-name="product" unicode="&#x220f;" horiz-adv-x="788" 
d="M659 -90h-143v632h-244v-632h-142v632h-105v125h738v-125h-104v-632z" />
    <glyph glyph-name="pi" unicode="&#x3c0;" horiz-adv-x="621" 
d="M526 0h-128v388h-174v-388h-129v388h-70v112h571v-112h-70v-388z" />
    <glyph glyph-name="integral" unicode="&#x222b;" horiz-adv-x="373" 
d="M78 -100h-61v85h61c34 0 63 30 63 75v548c0 99 75 160 155 160h60v-85h-60c-35 0 -63 -29 -63 -74v-550c0 -99 -75 -159 -155 -159z" />
    <glyph glyph-name="Omega" unicode="&#x3a9;" horiz-adv-x="765" 
d="M52 0v125h120c-73 52 -138 134 -138 241c0 190 148 312 349 312s348 -122 348 -312c0 -107 -65 -189 -138 -241h121v-125h-269v125c83 23 140 106 140 209c0 106 -61 217 -202 217c-142 0 -203 -111 -203 -217c0 -103 58 -186 141 -209v-125h-269z" />
    <glyph glyph-name="Omega" unicode="&#x2126;" horiz-adv-x="765" 
d="M52 0v125h120c-73 52 -138 134 -138 241c0 190 148 312 349 312s348 -122 348 -312c0 -107 -65 -189 -138 -241h121v-125h-269v125c83 23 140 106 140 209c0 106 -61 217 -202 217c-142 0 -203 -111 -203 -217c0 -103 58 -186 141 -209v-125h-269z" />
    <glyph glyph-name="radical" unicode="&#x221a;" horiz-adv-x="682" 
d="M404 0h-84l-112 302l-131 -47l-24 76l210 72l101 -276l198 540h95z" />
    <glyph glyph-name="approxequal" unicode="&#x2248;" horiz-adv-x="504" 
d="M29 201v85c33 -20 74 -30 112 -30c94 0 110 52 222 52c37 0 82 -9 112 -23v-86c-33 20 -75 30 -112 30c-95 0 -111 -51 -222 -51c-38 0 -81 8 -112 23zM29 383v86c33 -20 74 -30 112 -30c94 0 110 52 222 52c37 0 82 -9 112 -23v-86c-33 20 -75 30 -112 30
c-95 0 -111 -51 -222 -51c-38 0 -81 8 -112 22z" />
    <glyph glyph-name="Delta" unicode="&#x394;" horiz-adv-x="684" 
d="M688 0h-692l257 667h178zM488 125l-146 400l-146 -400h292z" />
    <glyph glyph-name="Delta" unicode="&#x2206;" horiz-adv-x="684" 
d="M688 0h-692l257 667h178zM488 125l-146 400l-146 -400h292z" />
    <glyph glyph-name="nbspace" unicode="&#xa0;" horiz-adv-x="257" 
 />
    <glyph glyph-name="lozenge" unicode="&#x25ca;" horiz-adv-x="375" 
d="M198 0h-21l-158 334l158 333h21l158 -333zM188 41l132 293l-133 292l-132 -292z" />
    <glyph glyph-name="Euro" unicode="&#x20ac;" horiz-adv-x="709" 
d="M413 -12c-164 0 -297 92 -341 237h-51v79h37c-1 9 -1 19 -1 29c0 11 0 21 1 32h-37v79h52c45 143 177 234 340 234c146 0 231 -79 278 -163l-122 -60c-28 54 -88 97 -156 97c-82 0 -149 -42 -184 -108h244v-79h-268c-2 -11 -2 -21 -2 -32c0 -10 0 -20 1 -29h269v-79h-245
c34 -68 101 -111 185 -111c68 0 128 43 156 97l122 -59c-47 -83 -132 -164 -278 -164z" />
    <glyph glyph-name="uni2318" unicode="&#x2318;" horiz-adv-x="667" 
d="M219 154v66h-66c-37 0 -65 -30 -65 -66c0 -37 28 -67 65 -67s66 30 66 67zM219 447v67c0 37 -29 66 -65 66c-37 0 -66 -29 -66 -66s29 -67 66 -67h65zM265 265h137v137h-137v-137zM579 154c0 36 -28 66 -65 66h-66v-66c0 -37 29 -67 66 -67s65 30 65 67zM579 514
c0 37 -29 66 -65 66c-37 0 -66 -29 -66 -66v-67h66c36 0 65 30 65 67zM625 154c0 -61 -50 -112 -111 -112s-112 51 -112 112v66h-137v-66c0 -61 -51 -112 -112 -112s-111 51 -111 112s50 111 111 111h66v137h-65c-61 0 -112 51 -112 112s51 111 112 111s111 -50 111 -111
v-67h137v67c0 61 51 111 112 111s111 -50 111 -111s-50 -112 -111 -112h-66v-137h66c61 0 111 -50 111 -111z" />
    <glyph glyph-name="uni2318" unicode="&#xf8ff;" horiz-adv-x="667" 
d="M219 154v66h-66c-37 0 -65 -30 -65 -66c0 -37 28 -67 65 -67s66 30 66 67zM219 447v67c0 37 -29 66 -65 66c-37 0 -66 -29 -66 -66s29 -67 66 -67h65zM265 265h137v137h-137v-137zM579 154c0 36 -28 66 -65 66h-66v-66c0 -37 29 -67 66 -67s65 30 65 67zM579 514
c0 37 -29 66 -65 66c-37 0 -66 -29 -66 -66v-67h66c36 0 65 30 65 67zM625 154c0 -61 -50 -112 -111 -112s-112 51 -112 112v66h-137v-66c0 -61 -51 -112 -112 -112s-111 51 -111 112s50 111 111 111h66v137h-65c-61 0 -112 51 -112 112s51 111 112 111s111 -50 111 -111
v-67h137v67c0 61 51 111 112 111s111 -50 111 -111s-50 -112 -111 -112h-66v-137h66c61 0 111 -50 111 -111z" />
    <glyph glyph-name="f.alt1" horiz-adv-x="327" 
d="M219 0h-127v372h-80v111h80v20c0 113 69 174 162 174c37 0 69 -8 92 -20l-26 -94c-10 7 -24 10 -41 10c-36 0 -60 -23 -60 -70v-20h98v-111h-98v-372z" />
    <glyph glyph-name="l.alt1" horiz-adv-x="298" 
d="M199 -12c-89 0 -136 46 -136 133v546h127v-512c0 -31 16 -54 44 -54c19 0 37 7 44 15l27 -97c-19 -17 -54 -31 -106 -31z" />
    <glyph glyph-name="a.alt1" horiz-adv-x="586" 
d="M523 0h-128v62c-38 -48 -90 -74 -149 -74c-121 0 -214 92 -214 254c0 157 91 253 214 253c57 0 110 -24 149 -74v62h128v-483zM286 101c42 0 88 23 109 55v170c-21 32 -67 56 -109 56c-73 0 -123 -57 -123 -140c0 -84 50 -141 123 -141z" />
    <glyph glyph-name="y.alt1" horiz-adv-x="579" 
d="M259 -196c-81 0 -146 23 -202 72l57 91c35 -42 94 -59 145 -59c82 0 130 56 130 124v50c-33 -36 -91 -73 -170 -73c-106 0 -156 58 -156 152v322h127v-272c0 -67 35 -89 89 -89c49 0 88 27 110 55v306h127v-451c0 -145 -103 -228 -257 -228z" />
    <glyph glyph-name="G.alt1" horiz-adv-x="720" 
d="M377 -12c-183 0 -343 135 -343 345c0 211 160 345 356 345c138 0 225 -70 275 -149l-117 -64c-31 47 -88 87 -158 87c-122 0 -210 -93 -210 -219s88 -219 210 -219c95 0 152 61 173 131h-208v125h364c0 -238 -129 -382 -342 -382z" />
    <glyph glyph-name="G.smcp.alt1" horiz-adv-x="632" 
d="M327 -12c-163 0 -295 114 -295 287c0 174 132 287 302 287c108 0 186 -55 229 -118l-107 -62c-26 37 -69 64 -122 64c-98 0 -167 -72 -167 -171c0 -98 69 -171 167 -171c62 0 118 35 133 97h-156v109h297c0 -212 -116 -322 -281 -322z" />
    <glyph glyph-name="Gbreve.alt1" horiz-adv-x="734" 
d="M566 803c-40 -54 -103 -88 -175 -88c-71 0 -135 34 -176 88l57 47c26 -37 68 -62 119 -62c50 0 91 23 119 62zM377 -12c-183 0 -343 135 -343 345c0 211 160 345 356 345c138 0 225 -70 275 -149l-117 -64c-31 47 -88 87 -158 87c-122 0 -210 -93 -210 -219
s88 -219 210 -219c95 0 152 61 173 131h-208v125h364c0 -238 -129 -382 -342 -382z" />
    <glyph glyph-name="Gbreve.smcp.alt1" horiz-adv-x="627" 
d="M511 684c-40 -54 -103 -88 -175 -88c-71 0 -135 34 -176 88l57 47c26 -37 68 -62 119 -62c50 0 91 23 119 62zM327 -12c-163 0 -295 114 -295 287c0 174 132 287 302 287c108 0 186 -55 229 -118l-107 -62c-26 37 -69 64 -122 64c-98 0 -167 -72 -167 -171
c0 -98 69 -171 167 -171c62 0 118 35 133 97h-156v109h297c0 -212 -116 -322 -281 -322z" />
    <glyph glyph-name="Gcommaaccent.alt1" horiz-adv-x="734" 
d="M461 -138c0 -61 -34 -115 -83 -150l-44 35c27 16 57 50 63 80c-2 -2 -9 -3 -15 -3c-30 0 -53 23 -53 57s27 62 61 62c37 0 71 -29 71 -81zM377 -12c-183 0 -343 135 -343 345c0 211 160 345 356 345c138 0 225 -70 275 -149l-117 -64c-31 47 -88 87 -158 87
c-122 0 -210 -93 -210 -219s88 -219 210 -219c95 0 152 61 173 131h-208v125h364c0 -238 -129 -382 -342 -382z" />
    <glyph glyph-name="Gcommaaccent.smcp.alt1" horiz-adv-x="632" 
d="M406 -138c0 -61 -34 -115 -83 -150l-44 35c27 16 57 50 63 80c-2 -2 -9 -3 -15 -3c-30 0 -53 23 -53 57s27 62 61 62c37 0 71 -29 71 -81zM327 -12c-163 0 -295 114 -295 287c0 174 132 287 302 287c108 0 186 -55 229 -118l-107 -62c-26 37 -69 64 -122 64
c-98 0 -167 -72 -167 -171c0 -98 69 -171 167 -171c62 0 118 35 133 97h-156v109h297c0 -212 -116 -322 -281 -322z" />
    <glyph glyph-name="lslash.alt1" horiz-adv-x="325" 
d="M9 204v93l81 46v324h127v-251l83 48v-92l-83 -48v-169c0 -31 16 -54 44 -54c19 0 37 7 44 15l27 -97c-19 -17 -54 -31 -106 -31c-89 0 -136 46 -136 133v130z" />
    <glyph glyph-name="lacute.alt1" horiz-adv-x="298" 
d="M296 872l-162 -144h-89l134 144h117zM199 -12c-89 0 -136 46 -136 133v546h127v-512c0 -31 16 -54 44 -54c19 0 37 7 44 15l27 -97c-19 -17 -54 -31 -106 -31z" />
    <glyph glyph-name="lcommaaccent.alt1" horiz-adv-x="298" 
d="M206 -138c0 -61 -34 -115 -83 -150l-44 35c27 16 57 50 63 80c-2 -2 -9 -3 -15 -3c-30 0 -53 23 -53 57s27 62 61 62c37 0 71 -29 71 -81zM199 -12c-89 0 -136 46 -136 133v546h127v-512c0 -31 16 -54 44 -54c19 0 37 7 44 15l27 -97c-19 -17 -54 -31 -106 -31z" />
    <glyph glyph-name="lcaron.alt1" horiz-adv-x="357" 
d="M380 599c0 -61 -34 -115 -83 -150l-44 35c27 16 57 50 63 80c-2 -2 -9 -3 -15 -3c-30 0 -53 23 -53 57s27 62 61 62c37 0 71 -29 71 -81zM199 -12c-89 0 -136 46 -136 133v546h127v-512c0 -31 16 -54 44 -54c19 0 37 7 44 15l27 -97c-19 -17 -54 -31 -106 -31z" />
    <glyph glyph-name="aacute.alt1" horiz-adv-x="586" 
d="M470 700l-162 -144h-89l134 144h117zM523 0h-128v62c-38 -48 -90 -74 -149 -74c-121 0 -214 92 -214 254c0 157 91 253 214 253c57 0 110 -24 149 -74v62h128v-483zM286 101c42 0 88 23 109 55v170c-21 32 -67 56 -109 56c-73 0 -123 -57 -123 -140
c0 -84 50 -141 123 -141z" />
    <glyph glyph-name="agrave.alt1" horiz-adv-x="586" 
d="M383 556h-89l-162 144h117zM523 0h-128v62c-38 -48 -90 -74 -149 -74c-121 0 -214 92 -214 254c0 157 91 253 214 253c57 0 110 -24 149 -74v62h128v-483zM286 101c42 0 88 23 109 55v170c-21 32 -67 56 -109 56c-73 0 -123 -57 -123 -140c0 -84 50 -141 123 -141z" />
    <glyph glyph-name="acircumflex.alt1" horiz-adv-x="586" 
d="M451 556h-78l-73 89l-71 -89h-78l92 144h114zM523 0h-128v62c-38 -48 -90 -74 -149 -74c-121 0 -214 92 -214 254c0 157 91 253 214 253c57 0 110 -24 149 -74v62h128v-483zM286 101c42 0 88 23 109 55v170c-21 32 -67 56 -109 56c-73 0 -123 -57 -123 -140
c0 -84 50 -141 123 -141z" />
    <glyph glyph-name="adieresis.alt1" horiz-adv-x="586" 
d="M475 611c0 -38 -30 -68 -68 -68c-37 0 -68 30 -68 68s31 68 68 68c38 0 68 -30 68 -68zM264 611c0 -38 -30 -68 -68 -68s-68 30 -68 68s30 68 68 68s68 -30 68 -68zM523 0h-128v62c-38 -48 -90 -74 -149 -74c-121 0 -214 92 -214 254c0 157 91 253 214 253
c57 0 110 -24 149 -74v62h128v-483zM286 101c42 0 88 23 109 55v170c-21 32 -67 56 -109 56c-73 0 -123 -57 -123 -140c0 -84 50 -141 123 -141z" />
    <glyph glyph-name="atilde.alt1" horiz-adv-x="586" 
d="M358 554c-68 0 -79 68 -117 68c-20 0 -36 -19 -36 -62h-67c0 85 38 134 108 134c67 0 78 -67 116 -67c20 0 36 19 36 61h67c0 -85 -37 -134 -107 -134zM523 0h-128v62c-38 -48 -90 -74 -149 -74c-121 0 -214 92 -214 254c0 157 91 253 214 253c57 0 110 -24 149 -74v62
h128v-483zM286 101c42 0 88 23 109 55v170c-21 32 -67 56 -109 56c-73 0 -123 -57 -123 -140c0 -84 50 -141 123 -141z" />
    <glyph glyph-name="aring.alt1" horiz-adv-x="586" 
d="M300 548c-57 0 -105 48 -105 105c0 58 48 105 105 105c58 0 104 -47 104 -105c0 -57 -46 -105 -104 -105zM300 606c26 0 46 21 46 47s-20 47 -46 47c-25 0 -47 -21 -47 -47s22 -47 47 -47zM523 0h-128v62c-38 -48 -90 -74 -149 -74c-121 0 -214 92 -214 254
c0 157 91 253 214 253c57 0 110 -24 149 -74v62h128v-483zM286 101c42 0 88 23 109 55v170c-21 32 -67 56 -109 56c-73 0 -123 -57 -123 -140c0 -84 50 -141 123 -141z" />
    <glyph glyph-name="amacron.alt1" horiz-adv-x="586" 
d="M483 591h-363v73h363v-73zM523 0h-128v62c-38 -48 -90 -74 -149 -74c-121 0 -214 92 -214 254c0 157 91 253 214 253c57 0 110 -24 149 -74v62h128v-483zM286 101c42 0 88 23 109 55v170c-21 32 -67 56 -109 56c-73 0 -123 -57 -123 -140c0 -84 50 -141 123 -141z" />
    <glyph glyph-name="abreve.alt1" horiz-adv-x="586" 
d="M477 644c-40 -54 -103 -88 -175 -88c-71 0 -135 34 -176 88l57 47c26 -37 68 -62 119 -62c50 0 91 23 119 62zM523 0h-128v62c-38 -48 -90 -74 -149 -74c-121 0 -214 92 -214 254c0 157 91 253 214 253c57 0 110 -24 149 -74v62h128v-483zM286 101c42 0 88 23 109 55v170
c-21 32 -67 56 -109 56c-73 0 -123 -57 -123 -140c0 -84 50 -141 123 -141z" />
    <glyph glyph-name="aogonek.alt1" horiz-adv-x="586" 
d="M523 0c-49 -24 -71 -55 -71 -90c0 -31 18 -42 37 -42c22 0 36 14 43 34l52 -32c-19 -32 -48 -56 -95 -56c-52 0 -100 26 -100 90c0 37 16 70 45 96h-39v62c-38 -48 -90 -74 -149 -74c-121 0 -214 92 -214 254c0 157 91 253 214 253c57 0 110 -24 149 -74v62h128v-483z
M286 101c42 0 88 23 109 55v170c-21 32 -67 56 -109 56c-73 0 -123 -57 -123 -140c0 -84 50 -141 123 -141z" />
    <glyph glyph-name="yacute.alt1" horiz-adv-x="579" 
d="M458 700l-162 -144h-89l134 144h117zM259 -196c-81 0 -146 23 -202 72l57 91c35 -42 94 -59 145 -59c82 0 130 56 130 124v50c-33 -36 -91 -73 -170 -73c-106 0 -156 58 -156 152v322h127v-272c0 -67 35 -89 89 -89c49 0 88 27 110 55v306h127v-451
c0 -145 -103 -228 -257 -228z" />
    <glyph glyph-name="ydieresis.alt1" horiz-adv-x="579" 
d="M460 611c0 -38 -30 -68 -68 -68c-37 0 -68 30 -68 68s31 68 68 68c38 0 68 -30 68 -68zM249 611c0 -38 -30 -68 -68 -68s-68 30 -68 68s30 68 68 68s68 -30 68 -68zM259 -196c-81 0 -146 23 -202 72l57 91c35 -42 94 -59 145 -59c82 0 130 56 130 124v50
c-33 -36 -91 -73 -170 -73c-106 0 -156 58 -156 152v322h127v-272c0 -67 35 -89 89 -89c49 0 88 27 110 55v306h127v-451c0 -145 -103 -228 -257 -228z" />
    <glyph glyph-name="ae.alt1" horiz-adv-x="912" 
d="M523 0h-128v62c-38 -48 -90 -74 -149 -74c-121 0 -214 92 -214 254c0 157 91 253 214 253c57 0 110 -24 149 -74v62h128v-67c33 48 85 79 156 79c122 0 204 -108 204 -265v-30h-360c9 -59 57 -106 139 -106c41 0 97 18 128 48l56 -87c-35 -36 -96 -67 -160 -67
c-72 0 -127 28 -163 79v-67zM286 101c42 0 88 23 109 55v170c-21 32 -67 56 -109 56c-73 0 -123 -57 -123 -140c0 -84 50 -141 123 -141zM761 288c-3 46 -36 103 -120 103c-79 0 -113 -55 -118 -103h238z" />
    <glyph glyph-name="zero.pzero" horiz-adv-x="620" 
d="M310 -12c-59 0 -108 16 -148 44l-21 -32h-100l61 93c-46 65 -68 153 -68 240c0 172 85 344 276 344c58 0 107 -17 146 -44l22 34h100l-62 -94c47 -65 70 -152 70 -240c0 -172 -85 -345 -276 -345zM310 114c95 0 131 96 131 219c0 39 -4 76 -12 107l-195 -297
c20 -19 44 -29 76 -29zM179 333c0 -39 3 -75 11 -106l194 297c-19 17 -44 27 -74 27c-95 0 -131 -95 -131 -218z" />
    <glyph glyph-name="Gcircumflex.alt1" horiz-adv-x="734" 
d="M537 728h-78l-73 89l-71 -89h-78l92 144h114zM377 -12c-183 0 -343 135 -343 345c0 211 160 345 356 345c138 0 225 -70 275 -149l-117 -64c-31 47 -88 87 -158 87c-122 0 -210 -93 -210 -219s88 -219 210 -219c95 0 152 61 173 131h-208v125h364
c0 -238 -129 -382 -342 -382z" />
    <glyph glyph-name="Gdotaccent.alt1" horiz-adv-x="734" 
d="M388 716c-38 0 -68 31 -68 68c0 38 30 68 68 68c36 0 67 -30 67 -68c0 -37 -31 -68 -67 -68zM377 -12c-183 0 -343 135 -343 345c0 211 160 345 356 345c138 0 225 -70 275 -149l-117 -64c-31 47 -88 87 -158 87c-122 0 -210 -93 -210 -219s88 -219 210 -219
c95 0 152 61 173 131h-208v125h364c0 -238 -129 -382 -342 -382z" />
    <glyph glyph-name="Gcircumflex.smcp.alt1" horiz-adv-x="616" 
d="M327 -12c-163 0 -295 114 -295 287c0 174 132 287 302 287c108 0 186 -55 229 -118l-107 -62c-26 37 -69 64 -122 64c-98 0 -167 -72 -167 -171c0 -98 69 -171 167 -171c62 0 118 35 133 97h-156v109h297c0 -212 -116 -322 -281 -322zM477 606h-78l-73 89l-71 -89h-78
l92 144h114z" />
    <glyph glyph-name="Gdotaccent.smcp.alt1" horiz-adv-x="616" 
d="M327 -12c-163 0 -295 114 -295 287c0 174 132 287 302 287c108 0 186 -55 229 -118l-107 -62c-26 37 -69 64 -122 64c-98 0 -167 -72 -167 -171c0 -98 69 -171 167 -171c62 0 118 35 133 97h-156v109h297c0 -212 -116 -322 -281 -322zM334 614c-38 0 -68 31 -68 68
c0 38 30 68 68 68c36 0 67 -30 67 -68c0 -37 -31 -68 -67 -68z" />
    <glyph glyph-name="aeacute.alt1" horiz-adv-x="870" 
d="M523 0h-128v62c-38 -48 -90 -74 -149 -74c-121 0 -214 92 -214 254c0 157 91 253 214 253c57 0 110 -24 149 -74v62h128v-67c33 48 85 79 156 79c122 0 204 -108 204 -265v-30h-360c9 -59 57 -106 139 -106c41 0 97 18 128 48l56 -87c-35 -36 -96 -67 -160 -67
c-72 0 -127 28 -163 79v-67zM286 101c42 0 88 23 109 55v170c-21 32 -67 56 -109 56c-73 0 -123 -57 -123 -140c0 -84 50 -141 123 -141zM761 288c-3 46 -36 103 -120 103c-79 0 -113 -55 -118 -103h238zM613 700l-162 -144h-89l134 144h117z" />
    <glyph glyph-name="ycircumflex.alt1" horiz-adv-x="579" 
d="M442 556h-78l-73 89l-71 -89h-78l92 144h114zM259 -196c-81 0 -146 23 -202 72l57 91c35 -42 94 -59 145 -59c82 0 130 56 130 124v50c-33 -36 -91 -73 -170 -73c-106 0 -156 58 -156 152v322h127v-272c0 -67 35 -89 89 -89c49 0 88 27 110 55v306h127v-451
c0 -145 -103 -228 -257 -228z" />
    <glyph glyph-name="ldot.alt1" horiz-adv-x="384" 
d="M199 -12c-89 0 -136 46 -136 133v546h127v-512c0 -31 16 -54 44 -54c19 0 37 7 44 15l27 -97c-19 -17 -54 -31 -106 -31zM399 244c0 -43 -37 -80 -81 -80s-80 37 -80 80c0 44 36 81 80 81s81 -37 81 -81z" />
    <glyph glyph-name="fl.alt1" horiz-adv-x="626" 
d="M219 0h-127v372h-80v111h80v20c0 113 69 174 162 174c37 0 69 -8 92 -20l-26 -94c-10 7 -24 10 -41 10c-36 0 -60 -23 -60 -70v-20h98v-111h-98v-372zM526 -12c-89 0 -136 46 -136 133v546h127v-512c0 -31 16 -54 44 -54c19 0 37 7 44 15l27 -97
c-19 -17 -54 -31 -106 -31z" />
    <glyph glyph-name="f_f_l.alt1" horiz-adv-x="953" 
d="M219 0h-127v372h-80v111h80v20c0 109 65 174 162 174c47 0 97 -13 126 -46l-48 -77c-13 12 -30 19 -53 19c-36 0 -60 -23 -60 -70v-20h98v-111h-98v-372zM546 0h-127v372h-80v111h80v20c0 113 69 174 162 174c37 0 69 -8 92 -20l-26 -94c-10 7 -24 10 -41 10
c-36 0 -60 -23 -60 -70v-20h98v-111h-98v-372zM854 -12c-89 0 -136 46 -136 133v546h127v-512c0 -31 16 -54 44 -54c19 0 37 7 44 15l27 -97c-19 -17 -54 -31 -106 -31z" />
    <glyph glyph-name="Amacron" unicode="&#x100;" horiz-adv-x="684" 
d="M688 0h-161l-42 113h-286l-42 -113h-161l257 667h178zM446 238l-104 287l-104 -287h208zM523 747h-363v73h363v-73z" />
    <glyph glyph-name="amacron" unicode="&#x101;" horiz-adv-x="543" 
d="M481 0h-128v51c-33 -40 -90 -63 -153 -63c-77 0 -167 52 -167 160c0 114 90 156 167 156c65 0 121 -21 153 -59v61c0 49 -42 81 -106 81c-51 0 -99 -20 -139 -57l-50 89c59 53 135 76 211 76c111 0 212 -44 212 -183v-312zM251 74c41 0 81 14 102 42v60
c-21 28 -61 43 -102 43c-50 0 -91 -27 -91 -73s41 -72 91 -72zM450 574h-363v73h363v-73z" />
    <glyph glyph-name="Abreve" unicode="&#x102;" horiz-adv-x="684" 
d="M688 0h-161l-42 113h-286l-42 -113h-161l257 667h178zM446 238l-104 287l-104 -287h208zM517 803c-40 -54 -103 -88 -175 -88c-71 0 -135 34 -176 88l57 47c26 -37 68 -62 119 -62c50 0 91 23 119 62z" />
    <glyph glyph-name="abreve" unicode="&#x103;" horiz-adv-x="543" 
d="M481 0h-128v51c-33 -40 -90 -63 -153 -63c-77 0 -167 52 -167 160c0 114 90 156 167 156c65 0 121 -21 153 -59v61c0 49 -42 81 -106 81c-51 0 -99 -20 -139 -57l-50 89c59 53 135 76 211 76c111 0 212 -44 212 -183v-312zM251 74c41 0 81 14 102 42v60
c-21 28 -61 43 -102 43c-50 0 -91 -27 -91 -73s41 -72 91 -72zM444 644c-40 -54 -103 -88 -175 -88c-71 0 -135 34 -176 88l57 47c26 -37 68 -62 119 -62c50 0 91 23 119 62z" />
    <glyph glyph-name="Aogonek" unicode="&#x104;" horiz-adv-x="684" 
d="M697 -98l52 -32c-19 -32 -48 -56 -95 -56c-52 0 -100 26 -100 90c0 37 16 70 45 96h-72l-42 113h-286l-42 -113h-161l257 667h178l257 -667c-49 -24 -71 -55 -71 -90c0 -31 18 -42 37 -42c22 0 36 14 43 34zM446 238l-104 287l-104 -287h208z" />
    <glyph glyph-name="aogonek" unicode="&#x105;" horiz-adv-x="543" 
d="M490 -98l52 -32c-19 -32 -48 -56 -95 -56c-52 0 -100 26 -100 90c0 37 16 70 45 96h-39v51c-33 -40 -90 -63 -153 -63c-77 0 -167 52 -167 160c0 114 90 156 167 156c65 0 121 -21 153 -59v61c0 49 -42 81 -106 81c-51 0 -99 -20 -139 -57l-50 89c59 53 135 76 211 76
c111 0 212 -44 212 -183v-312c-49 -24 -71 -55 -71 -90c0 -31 18 -42 37 -42c22 0 36 14 43 34zM251 74c41 0 81 14 102 42v60c-21 28 -61 43 -102 43c-50 0 -91 -27 -91 -73s41 -72 91 -72z" />
    <glyph glyph-name="Cacute" unicode="&#x106;" horiz-adv-x="687" 
d="M390 -12c-201 0 -356 140 -356 345c0 206 155 345 356 345c146 0 231 -79 278 -163l-122 -60c-28 54 -88 97 -156 97c-122 0 -210 -93 -210 -219s88 -219 210 -219c68 0 128 43 156 97l122 -59c-47 -83 -132 -164 -278 -164zM558 872l-162 -144h-89l134 144h117z" />
    <glyph glyph-name="cacute" unicode="&#x107;" horiz-adv-x="499" 
d="M288 -12c-148 0 -256 105 -256 254c0 148 108 253 256 253c99 0 159 -43 191 -87l-83 -78c-23 34 -58 52 -102 52c-77 0 -131 -56 -131 -140s54 -141 131 -141c44 0 79 20 102 53l83 -78c-32 -44 -92 -88 -191 -88zM464 700l-162 -144h-89l134 144h117z" />
    <glyph glyph-name="Ccircumflex" unicode="&#x108;" horiz-adv-x="687" 
d="M390 -12c-201 0 -356 140 -356 345c0 206 155 345 356 345c146 0 231 -79 278 -163l-122 -60c-28 54 -88 97 -156 97c-122 0 -210 -93 -210 -219s88 -219 210 -219c68 0 128 43 156 97l122 -59c-47 -83 -132 -164 -278 -164zM539 728h-78l-73 89l-71 -89h-78l92 144h114z
" />
    <glyph glyph-name="ccircumflex" unicode="&#x109;" horiz-adv-x="499" 
d="M288 -12c-148 0 -256 105 -256 254c0 148 108 253 256 253c99 0 159 -43 191 -87l-83 -78c-23 34 -58 52 -102 52c-77 0 -131 -56 -131 -140s54 -141 131 -141c44 0 79 20 102 53l83 -78c-32 -44 -92 -88 -191 -88zM445 556h-78l-73 89l-71 -89h-78l92 144h114z" />
    <glyph glyph-name="Cdotaccent" unicode="&#x10a;" horiz-adv-x="687" 
d="M390 -12c-201 0 -356 140 -356 345c0 206 155 345 356 345c146 0 231 -79 278 -163l-122 -60c-28 54 -88 97 -156 97c-122 0 -210 -93 -210 -219s88 -219 210 -219c68 0 128 43 156 97l122 -59c-47 -83 -132 -164 -278 -164zM392 716c-38 0 -68 31 -68 68
c0 38 30 68 68 68c36 0 67 -30 67 -68c0 -37 -31 -68 -67 -68z" />
    <glyph glyph-name="cdotaccent" unicode="&#x10b;" horiz-adv-x="499" 
d="M288 -12c-148 0 -256 105 -256 254c0 148 108 253 256 253c99 0 159 -43 191 -87l-83 -78c-23 34 -58 52 -102 52c-77 0 -131 -56 -131 -140s54 -141 131 -141c44 0 79 20 102 53l83 -78c-32 -44 -92 -88 -191 -88zM289 551c-38 0 -68 31 -68 68c0 38 30 68 68 68
c36 0 67 -30 67 -68c0 -37 -31 -68 -67 -68z" />
    <glyph glyph-name="Ccaron" unicode="&#x10c;" horiz-adv-x="687" 
d="M390 -12c-201 0 -356 140 -356 345c0 206 155 345 356 345c146 0 231 -79 278 -163l-122 -60c-28 54 -88 97 -156 97c-122 0 -210 -93 -210 -219s88 -219 210 -219c68 0 128 43 156 97l122 -59c-47 -83 -132 -164 -278 -164zM448 728h-114l-95 144h78l74 -89l70 89h78z
" />
    <glyph glyph-name="ccaron" unicode="&#x10d;" horiz-adv-x="499" 
d="M288 -12c-148 0 -256 105 -256 254c0 148 108 253 256 253c99 0 159 -43 191 -87l-83 -78c-23 34 -58 52 -102 52c-77 0 -131 -56 -131 -140s54 -141 131 -141c44 0 79 20 102 53l83 -78c-32 -44 -92 -88 -191 -88zM354 556h-114l-95 144h78l74 -89l70 89h78z" />
    <glyph glyph-name="Dcaron" unicode="&#x10e;" horiz-adv-x="718" 
d="M330 0h-264v667h263c209 0 354 -133 354 -333c0 -202 -145 -334 -353 -334zM329 125c132 0 209 95 209 209c0 117 -72 208 -208 208h-122v-417h121zM421 728h-114l-95 144h78l74 -89l70 89h78z" />
    <glyph glyph-name="dcaron" unicode="&#x10f;" horiz-adv-x="690" 
d="M523 0h-128v62c-38 -48 -90 -74 -149 -74c-121 0 -214 92 -214 254c0 157 91 253 214 253c57 0 111 -24 149 -74v246h128v-667zM286 101c42 0 88 23 109 55v171c-21 32 -67 55 -109 55c-73 0 -123 -57 -123 -140c0 -84 50 -141 123 -141zM696 598
c0 -61 -34 -115 -83 -150l-44 35c27 16 57 50 63 80c-2 -2 -9 -3 -15 -3c-30 0 -53 23 -53 57s27 62 61 62c37 0 71 -29 71 -81z" />
    <glyph glyph-name="Dcroat" unicode="&#x110;" horiz-adv-x="742" 
d="M355 0h-264v277h-82v106h82v284h263c209 0 354 -133 354 -333c0 -202 -145 -334 -353 -334zM383 277h-150v-152h121c132 0 209 95 209 209c0 117 -72 208 -208 208h-122v-159h150v-106z" />
    <glyph glyph-name="dcroat" unicode="&#x111;" horiz-adv-x="590" 
d="M523 0h-128v62c-38 -48 -90 -74 -149 -74c-121 0 -214 92 -214 254c0 157 91 253 214 253c57 0 111 -24 149 -74v107h-145v73h145v66h128v-66h58v-73h-58v-528zM286 101c42 0 88 23 109 55v171c-21 32 -67 55 -109 55c-73 0 -123 -57 -123 -140c0 -84 50 -141 123 -141z
" />
    <glyph glyph-name="Emacron" unicode="&#x112;" horiz-adv-x="583" 
d="M538 0h-472v667h472v-125h-330v-140h323v-125h-323v-152h330v-125zM480 747h-363v73h363v-73z" />
    <glyph glyph-name="emacron" unicode="&#x113;" horiz-adv-x="553" 
d="M290 -12c-147 0 -258 99 -258 254c0 140 104 253 250 253c145 0 242 -108 242 -265v-30h-359c9 -59 57 -108 139 -108c41 0 97 17 128 47l57 -84c-48 -44 -124 -67 -199 -67zM402 288c-4 46 -36 103 -120 103c-79 0 -113 -55 -118 -103h238zM459 574h-363v73h363v-73z
" />
    <glyph glyph-name="Ebreve" unicode="&#x114;" horiz-adv-x="583" 
d="M538 0h-472v667h472v-125h-330v-140h323v-125h-323v-152h330v-125zM473 803c-40 -54 -103 -88 -175 -88c-71 0 -135 34 -176 88l57 47c26 -37 68 -62 119 -62c50 0 91 23 119 62z" />
    <glyph glyph-name="ebreve" unicode="&#x115;" horiz-adv-x="553" 
d="M290 -12c-147 0 -258 99 -258 254c0 140 104 253 250 253c145 0 242 -108 242 -265v-30h-359c9 -59 57 -108 139 -108c41 0 97 17 128 47l57 -84c-48 -44 -124 -67 -199 -67zM402 288c-4 46 -36 103 -120 103c-79 0 -113 -55 -118 -103h238zM460 644
c-40 -54 -103 -88 -175 -88c-71 0 -135 34 -176 88l57 47c26 -37 68 -62 119 -62c50 0 91 23 119 62z" />
    <glyph glyph-name="Edotaccent" unicode="&#x116;" horiz-adv-x="583" 
d="M538 0h-472v667h472v-125h-330v-140h323v-125h-323v-152h330v-125zM304 716c-38 0 -68 31 -68 68c0 38 30 68 68 68c36 0 67 -30 67 -68c0 -37 -31 -68 -67 -68z" />
    <glyph glyph-name="edotaccent" unicode="&#x117;" horiz-adv-x="553" 
d="M290 -12c-147 0 -258 99 -258 254c0 140 104 253 250 253c145 0 242 -108 242 -265v-30h-359c9 -59 57 -108 139 -108c41 0 97 17 128 47l57 -84c-48 -44 -124 -67 -199 -67zM402 288c-4 46 -36 103 -120 103c-79 0 -113 -55 -118 -103h238zM285 551c-38 0 -68 31 -68 68
c0 38 30 68 68 68c36 0 67 -30 67 -68c0 -37 -31 -68 -67 -68z" />
    <glyph glyph-name="Eogonek" unicode="&#x118;" horiz-adv-x="583" 
d="M547 -98l52 -32c-19 -32 -48 -56 -95 -56c-52 0 -100 26 -100 90c0 37 16 70 45 96h-383v667h472v-125h-330v-140h323v-125h-323v-152h330v-125c-49 -24 -71 -55 -71 -90c0 -31 18 -42 37 -42c22 0 36 14 43 34z" />
    <glyph glyph-name="eogonek" unicode="&#x119;" horiz-adv-x="553" 
d="M392 -98l52 -32c-19 -32 -48 -56 -95 -56c-52 0 -100 26 -100 90c0 32 12 60 34 84c-144 3 -251 101 -251 254c0 140 104 253 250 253c145 0 242 -108 242 -265v-30h-359c9 -59 57 -108 139 -108c41 0 97 17 128 47l57 -84c-28 -26 -65 -44 -106 -55
c-49 -24 -71 -55 -71 -90c0 -31 18 -42 37 -42c22 0 36 14 43 34zM402 288c-4 46 -36 103 -120 103c-79 0 -113 -55 -118 -103h238z" />
    <glyph glyph-name="Ecaron" unicode="&#x11a;" horiz-adv-x="583" 
d="M538 0h-472v667h472v-125h-330v-140h323v-125h-323v-152h330v-125zM362 728h-114l-95 144h78l74 -89l70 89h78z" />
    <glyph glyph-name="ecaron" unicode="&#x11b;" horiz-adv-x="553" 
d="M290 -12c-147 0 -258 99 -258 254c0 140 104 253 250 253c145 0 242 -108 242 -265v-30h-359c9 -59 57 -108 139 -108c41 0 97 17 128 47l57 -84c-48 -44 -124 -67 -199 -67zM402 288c-4 46 -36 103 -120 103c-79 0 -113 -55 -118 -103h238zM340 556h-114l-95 144h78
l74 -89l70 89h78z" />
    <glyph glyph-name="Gcircumflex" unicode="&#x11c;" horiz-adv-x="720" 
d="M390 -12c-196 0 -356 135 -356 345c0 211 160 345 356 345c138 0 225 -70 275 -149l-117 -64c-31 47 -88 87 -158 87c-122 0 -210 -93 -210 -219s88 -219 210 -219c59 0 114 26 141 51v80h-176v124h318v-256c-68 -76 -163 -125 -283 -125zM542 728h-78l-73 89l-71 -89
h-78l92 144h114z" />
    <glyph glyph-name="gcircumflex" unicode="&#x11d;" horiz-adv-x="585" 
d="M261 -196c-82 0 -147 19 -208 72l57 91c39 -42 91 -59 151 -59c61 0 134 26 134 124v47c-38 -48 -90 -75 -150 -75c-120 0 -213 84 -213 245c0 158 91 246 213 246c58 0 111 -24 150 -74v62h127v-451c0 -183 -142 -228 -261 -228zM286 116c41 0 87 24 109 55v157
c-22 31 -68 54 -109 54c-73 0 -123 -50 -123 -133s50 -133 123 -133zM448 548h-78l-73 89l-71 -89h-78l92 144h114z" />
    <glyph glyph-name="Gbreve" unicode="&#x11e;" horiz-adv-x="720" 
d="M390 -12c-196 0 -356 135 -356 345c0 211 160 345 356 345c138 0 225 -70 275 -149l-117 -64c-31 47 -88 87 -158 87c-122 0 -210 -93 -210 -219s88 -219 210 -219c59 0 114 26 141 51v80h-176v124h318v-256c-68 -76 -163 -125 -283 -125zM566 803
c-40 -54 -103 -88 -175 -88c-71 0 -135 34 -176 88l57 47c26 -37 68 -62 119 -62c50 0 91 23 119 62z" />
    <glyph glyph-name="gbreve" unicode="&#x11f;" horiz-adv-x="585" 
d="M261 -196c-82 0 -147 19 -208 72l57 91c39 -42 91 -59 151 -59c61 0 134 26 134 124v47c-38 -48 -90 -75 -150 -75c-120 0 -213 84 -213 245c0 158 91 246 213 246c58 0 111 -24 150 -74v62h127v-451c0 -183 -142 -228 -261 -228zM286 116c41 0 87 24 109 55v157
c-22 31 -68 54 -109 54c-73 0 -123 -50 -123 -133s50 -133 123 -133zM465 644c-40 -54 -103 -88 -175 -88c-71 0 -135 34 -176 88l57 47c26 -37 68 -62 119 -62c50 0 91 23 119 62z" />
    <glyph glyph-name="Gdotaccent" unicode="&#x120;" horiz-adv-x="720" 
d="M390 -12c-196 0 -356 135 -356 345c0 211 160 345 356 345c138 0 225 -70 275 -149l-117 -64c-31 47 -88 87 -158 87c-122 0 -210 -93 -210 -219s88 -219 210 -219c59 0 114 26 141 51v80h-176v124h318v-256c-68 -76 -163 -125 -283 -125zM391 716c-38 0 -68 31 -68 68
c0 38 30 68 68 68c36 0 67 -30 67 -68c0 -37 -31 -68 -67 -68z" />
    <glyph glyph-name="gdotaccent" unicode="&#x121;" horiz-adv-x="585" 
d="M261 -196c-82 0 -147 19 -208 72l57 91c39 -42 91 -59 151 -59c61 0 134 26 134 124v47c-38 -48 -90 -75 -150 -75c-120 0 -213 84 -213 245c0 158 91 246 213 246c58 0 111 -24 150 -74v62h127v-451c0 -183 -142 -228 -261 -228zM286 116c41 0 87 24 109 55v157
c-22 31 -68 54 -109 54c-73 0 -123 -50 -123 -133s50 -133 123 -133zM298 551c-38 0 -68 31 -68 68c0 38 30 68 68 68c36 0 67 -30 67 -68c0 -37 -31 -68 -67 -68z" />
    <glyph glyph-name="Gcommaaccent" unicode="&#x122;" horiz-adv-x="720" 
d="M390 -12c-196 0 -356 135 -356 345c0 211 160 345 356 345c138 0 225 -70 275 -149l-117 -64c-31 47 -88 87 -158 87c-122 0 -210 -93 -210 -219s88 -219 210 -219c59 0 114 26 141 51v80h-176v124h318v-256c-68 -76 -163 -125 -283 -125zM461 -138
c0 -61 -34 -115 -83 -150l-44 35c27 16 57 50 63 80c-2 -2 -9 -3 -15 -3c-30 0 -53 23 -53 57s27 62 61 62c37 0 71 -29 71 -81z" />
    <glyph glyph-name="gcommaaccent" unicode="&#x123;" horiz-adv-x="585" 
d="M223 631c0 63 29 120 79 155l44 -35c-24 -13 -58 -46 -62 -74c2 0 4 1 6 1c30 0 61 -26 61 -60c0 -33 -28 -63 -64 -63c-26 0 -64 18 -64 76zM261 -196c-82 0 -147 19 -208 72l57 91c39 -42 91 -59 151 -59c61 0 134 26 134 124v47c-38 -48 -90 -75 -150 -75
c-120 0 -213 84 -213 245c0 158 91 246 213 246c58 0 111 -24 150 -74v62h127v-451c0 -183 -142 -228 -261 -228zM286 116c41 0 87 24 109 55v157c-22 31 -68 54 -109 54c-73 0 -123 -50 -123 -133s50 -133 123 -133z" />
    <glyph glyph-name="Hcircumflex" unicode="&#x124;" horiz-adv-x="731" 
d="M666 0h-143v281h-315v-281h-142v667h142v-262h315v262h143v-667zM515 728h-78l-73 89l-71 -89h-78l92 144h114z" />
    <glyph glyph-name="hcircumflex" unicode="&#x125;" horiz-adv-x="580" 
d="M517 0h-127v294c0 67 -35 88 -89 88c-50 0 -89 -28 -110 -56v-326h-128v667h128v-246c31 36 90 74 169 74c106 0 157 -58 157 -152v-343zM279 728h-78l-73 89l-71 -89h-78l92 144h114z" />
    <glyph glyph-name="Hbar" unicode="&#x126;" horiz-adv-x="748" 
d="M675 0h-143v281h-315v-281h-142v501h-66v73h66v93h142v-93h315v93h143v-93h65v-73h-65v-501zM217 405h315v96h-315v-96z" />
    <glyph glyph-name="hbar" unicode="&#x127;" horiz-adv-x="584" 
d="M340 528h-145v-107c31 36 90 74 169 74c106 0 157 -58 157 -152v-343h-127v294c0 67 -35 88 -89 88c-50 0 -89 -28 -110 -56v-326h-128v528h-58v73h58v66h128v-66h145v-73z" />
    <glyph glyph-name="Itilde" unicode="&#x128;" horiz-adv-x="274" 
d="M208 0h-142v667h142v-667zM194 726c-68 0 -79 68 -117 68c-20 0 -36 -19 -36 -62h-67c0 85 38 134 108 134c67 0 78 -67 116 -67c20 0 36 19 36 61h67c0 -85 -37 -134 -107 -134z" />
    <glyph glyph-name="itilde" unicode="&#x129;" horiz-adv-x="253" 
d="M190 0h-127v483h127v-483zM184 537c-68 0 -79 68 -117 68c-20 0 -36 -19 -36 -62h-67c0 85 38 134 108 134c67 0 78 -67 116 -67c20 0 36 19 36 61h67c0 -85 -37 -134 -107 -134z" />
    <glyph glyph-name="Imacron" unicode="&#x12a;" horiz-adv-x="274" 
d="M208 0h-142v667h142v-667zM319 747h-363v73h363v-73z" />
    <glyph glyph-name="imacron" unicode="&#x12b;" horiz-adv-x="253" 
d="M190 0h-127v483h127v-483zM308 574h-363v73h363v-73z" />
    <glyph glyph-name="Ibreve" unicode="&#x12c;" horiz-adv-x="274" 
d="M208 0h-142v667h142v-667zM316 803c-40 -54 -103 -88 -175 -88c-71 0 -135 34 -176 88l57 47c26 -37 68 -62 119 -62c50 0 91 23 119 62z" />
    <glyph glyph-name="ibreve" unicode="&#x12d;" horiz-adv-x="253" 
d="M190 0h-127v483h127v-483zM303 644c-40 -54 -103 -88 -175 -88c-71 0 -135 34 -176 88l57 47c26 -37 68 -62 119 -62c50 0 91 23 119 62z" />
    <glyph glyph-name="Iogonek" unicode="&#x12e;" horiz-adv-x="274" 
d="M217 -98l52 -32c-19 -32 -48 -56 -95 -56c-52 0 -100 26 -100 90c0 37 16 70 45 96h-53v667h142v-667c-49 -24 -71 -55 -71 -90c0 -31 18 -42 37 -42c22 0 36 14 43 34z" />
    <glyph glyph-name="iogonek" unicode="&#x12f;" horiz-adv-x="253" 
d="M199 -98l52 -32c-19 -32 -48 -56 -95 -56c-52 0 -100 26 -100 90c0 37 16 70 45 96h-38v483h127v-483c-49 -24 -71 -55 -71 -90c0 -31 18 -42 37 -42c22 0 36 14 43 34zM126 535c-41 0 -75 34 -75 76s34 75 75 75c42 0 76 -33 76 -75s-34 -76 -76 -76z" />
    <glyph glyph-name="Idotaccent" unicode="&#x130;" horiz-adv-x="274" 
d="M208 0h-142v667h142v-667zM139 716c-38 0 -68 31 -68 68c0 38 30 68 68 68c36 0 67 -30 67 -68c0 -37 -31 -68 -67 -68z" />
    <glyph glyph-name="IJ" unicode="&#x132;" horiz-adv-x="761" 
d="M208 0h-142v667h142v-667zM460 -12c-68 0 -132 19 -180 66l62 108c26 -25 60 -48 106 -48c63 0 104 43 104 107v446h143v-448c0 -157 -99 -231 -235 -231z" />
    <glyph glyph-name="ij" unicode="&#x133;" horiz-adv-x="505" 
d="M126 535c-41 0 -75 34 -75 76s34 75 75 75c42 0 76 -33 76 -75s-34 -76 -76 -76zM190 0h-127v483h127v-483zM379 535c-41 0 -75 34 -75 76s34 75 75 75c42 0 76 -33 76 -75s-34 -76 -76 -76zM271 -196c-61 0 -85 10 -120 35l34 94c19 -16 36 -25 65 -25c39 0 66 25 66 79
v496h127v-496c0 -110 -56 -183 -172 -183z" />
    <glyph glyph-name="Jcircumflex" unicode="&#x134;" horiz-adv-x="486" 
d="M186 -12c-68 0 -132 19 -180 66l62 108c26 -25 60 -48 106 -48c63 0 104 43 104 107v446h143v-448c0 -157 -99 -231 -235 -231zM500 728h-78l-73 89l-71 -89h-78l92 144h114z" />
    <glyph glyph-name="jcircumflex" unicode="&#x135;" horiz-adv-x="253" 
d="M18 -196c-61 0 -85 10 -120 35l34 103c19 -16 36 -25 65 -25c39 0 66 25 66 70v496h127v-496c0 -110 -56 -183 -172 -183zM279 556h-78l-73 89l-71 -89h-78l92 144h114z" />
    <glyph glyph-name="Kcommaaccent" unicode="&#x136;" horiz-adv-x="648" 
d="M637 0h-175l-202 268l-52 -63v-205h-142v667h142v-297l236 297h175l-265 -313zM395 -138c0 -61 -34 -115 -83 -150l-44 35c27 16 57 50 63 80c-2 -2 -9 -3 -15 -3c-30 0 -53 23 -53 57s27 62 61 62c37 0 71 -29 71 -81z" />
    <glyph glyph-name="kcommaaccent" unicode="&#x137;" horiz-adv-x="536" 
d="M535 0h-159l-128 186l-58 -62v-124h-127v667h127v-399l183 215h156l-191 -219zM340 -138c0 -61 -34 -115 -83 -150l-44 35c27 16 57 50 63 80c-2 -2 -9 -3 -15 -3c-30 0 -53 23 -53 57s27 62 61 62c37 0 71 -29 71 -81z" />
    <glyph glyph-name="kgreenlandic" unicode="&#x138;" horiz-adv-x="536" 
d="M535 0h-159l-128 186l-58 -62v-124h-127v483h127v-215l183 215h156l-191 -219z" />
    <glyph glyph-name="Lacute" unicode="&#x139;" horiz-adv-x="515" 
d="M485 0h-425v667h143v-542h282v-125zM441 872l-162 -144h-89l134 144h117z" />
    <glyph glyph-name="lacute" unicode="&#x13a;" horiz-adv-x="253" 
d="M190 0h-127v667h127v-667zM296 872l-162 -144h-89l134 144h117z" />
    <glyph glyph-name="Lcommaaccent" unicode="&#x13b;" horiz-adv-x="515" 
d="M485 0h-425v667h143v-542h282v-125zM326 -138c0 -61 -34 -115 -83 -150l-44 35c27 16 57 50 63 80c-2 -2 -9 -3 -15 -3c-30 0 -53 23 -53 57s27 62 61 62c37 0 71 -29 71 -81z" />
    <glyph glyph-name="lcommaaccent" unicode="&#x13c;" horiz-adv-x="253" 
d="M190 0h-127v667h127v-667zM198 -138c0 -61 -34 -115 -83 -150l-44 35c27 16 57 50 63 80c-2 -2 -9 -3 -15 -3c-30 0 -53 23 -53 57s27 62 61 62c37 0 71 -29 71 -81z" />
    <glyph glyph-name="Lcaron" unicode="&#x13d;" horiz-adv-x="515" 
d="M485 0h-425v667h143v-542h282v-125zM415 599c0 -61 -34 -115 -83 -150l-44 35c27 16 57 50 63 80c-2 -2 -9 -3 -15 -3c-30 0 -53 23 -53 57s27 62 61 62c37 0 71 -29 71 -81z" />
    <glyph glyph-name="lcaron" unicode="&#x13e;" horiz-adv-x="355" 
d="M190 0h-127v667h127v-667zM373 599c0 -61 -34 -115 -83 -150l-44 35c27 16 57 50 63 80c-2 -2 -9 -3 -15 -3c-30 0 -53 23 -53 57s27 62 61 62c37 0 71 -29 71 -81z" />
    <glyph glyph-name="Ldot" unicode="&#x13f;" horiz-adv-x="556" 
d="M485 0h-425v667h143v-542h282v-125zM493 342c0 -43 -37 -80 -81 -80s-80 37 -80 80c0 44 36 81 80 81s81 -37 81 -81z" />
    <glyph glyph-name="ldot" unicode="&#x140;" horiz-adv-x="384" 
d="M190 0h-127v667h127v-667zM399 244c0 -43 -37 -80 -81 -80s-80 37 -80 80c0 44 36 81 80 81s81 -37 81 -81z" />
    <glyph glyph-name="Nacute" unicode="&#x143;" horiz-adv-x="729" 
d="M663 0h-137l-318 435v-435h-142v667h146l309 -419v419h142v-667zM533 872l-162 -144h-89l134 144h117z" />
    <glyph glyph-name="nacute" unicode="&#x144;" horiz-adv-x="579" 
d="M524 0h-128v292c0 67 -35 90 -89 90c-50 0 -88 -28 -110 -56v-326h-127v483h127v-62c31 36 91 74 169 74c107 0 158 -60 158 -154v-341zM459 700l-162 -144h-89l134 144h117z" />
    <glyph glyph-name="Ncommaaccent" unicode="&#x145;" horiz-adv-x="729" 
d="M663 0h-137l-318 435v-435h-142v667h146l309 -419v419h142v-667zM436 -138c0 -61 -34 -115 -83 -150l-44 35c27 16 57 50 63 80c-2 -2 -9 -3 -15 -3c-30 0 -53 23 -53 57s27 62 61 62c37 0 71 -29 71 -81z" />
    <glyph glyph-name="ncommaaccent" unicode="&#x146;" horiz-adv-x="579" 
d="M524 0h-128v292c0 67 -35 90 -89 90c-50 0 -88 -28 -110 -56v-326h-127v483h127v-62c31 36 91 74 169 74c107 0 158 -60 158 -154v-341zM361 -138c0 -61 -34 -115 -83 -150l-44 35c27 16 57 50 63 80c-2 -2 -9 -3 -15 -3c-30 0 -53 23 -53 57s27 62 61 62
c37 0 71 -29 71 -81z" />
    <glyph glyph-name="Ncaron" unicode="&#x147;" horiz-adv-x="729" 
d="M663 0h-137l-318 435v-435h-142v667h146l309 -419v419h142v-667zM423 728h-114l-95 144h78l74 -89l70 89h78z" />
    <glyph glyph-name="ncaron" unicode="&#x148;" horiz-adv-x="579" 
d="M524 0h-128v292c0 67 -35 90 -89 90c-50 0 -88 -28 -110 -56v-326h-127v483h127v-62c31 36 91 74 169 74c107 0 158 -60 158 -154v-341zM349 556h-114l-95 144h78l74 -89l70 89h78z" />
    <glyph glyph-name="napostrophe" unicode="&#x149;" horiz-adv-x="579" 
d="M524 0h-128v292c0 67 -35 90 -89 90c-50 0 -88 -28 -110 -56v-326h-127v483h127v-62c31 36 91 74 169 74c107 0 158 -60 158 -154v-341zM176 683c0 -61 -34 -115 -83 -150l-44 35c27 16 57 50 63 80c-2 -2 -9 -3 -15 -3c-30 0 -53 23 -53 57s27 62 61 62
c37 0 71 -29 71 -81z" />
    <glyph glyph-name="Eng" unicode="&#x14a;" horiz-adv-x="729" 
d="M428 -196c-68 0 -131 19 -180 66l63 108c25 -25 60 -48 106 -48c54 0 92 31 102 80l-311 425v-435h-142v667h146l309 -419v419h142v-633c0 -157 -98 -230 -235 -230z" />
    <glyph glyph-name="eng" unicode="&#x14b;" horiz-adv-x="579" 
d="M344 -196c-60 0 -85 10 -119 35l34 103c19 -16 36 -25 65 -25c39 0 65 25 65 70v305c0 67 -35 90 -89 90c-50 0 -88 -28 -110 -56v-326h-127v483h127v-62c31 36 91 74 169 74c107 0 158 -60 158 -154v-354c0 -110 -56 -183 -173 -183z" />
    <glyph glyph-name="Omacron" unicode="&#x14c;" horiz-adv-x="765" 
d="M383 -12c-202 0 -349 144 -349 345s147 345 349 345c201 0 348 -144 348 -345s-147 -345 -348 -345zM383 114c123 0 202 95 202 219c0 125 -79 219 -202 219c-124 0 -203 -94 -203 -219c0 -124 79 -219 203 -219zM564 747h-363v73h363v-73z" />
    <glyph glyph-name="omacron" unicode="&#x14d;" horiz-adv-x="575" 
d="M287 -12c-159 0 -255 117 -255 254s96 253 255 253c160 0 256 -116 256 -253s-96 -254 -256 -254zM287 101c80 0 124 65 124 141c0 75 -44 140 -124 140c-79 0 -123 -65 -123 -140c0 -76 44 -141 123 -141zM469 574h-363v73h363v-73z" />
    <glyph glyph-name="Obreve" unicode="&#x14e;" horiz-adv-x="765" 
d="M383 -12c-202 0 -349 144 -349 345s147 345 349 345c201 0 348 -144 348 -345s-147 -345 -348 -345zM383 114c123 0 202 95 202 219c0 125 -79 219 -202 219c-124 0 -203 -94 -203 -219c0 -124 79 -219 203 -219zM557 803c-40 -54 -103 -88 -175 -88
c-71 0 -135 34 -176 88l57 47c26 -37 68 -62 119 -62c50 0 91 23 119 62z" />
    <glyph glyph-name="obreve" unicode="&#x14f;" horiz-adv-x="575" 
d="M287 -12c-159 0 -255 117 -255 254s96 253 255 253c160 0 256 -116 256 -253s-96 -254 -256 -254zM287 101c80 0 124 65 124 141c0 75 -44 140 -124 140c-79 0 -123 -65 -123 -140c0 -76 44 -141 123 -141zM462 644c-40 -54 -103 -88 -175 -88c-71 0 -135 34 -176 88
l57 47c26 -37 68 -62 119 -62c50 0 91 23 119 62z" />
    <glyph glyph-name="Ohungarumlaut" unicode="&#x150;" horiz-adv-x="765" 
d="M383 -12c-202 0 -349 144 -349 345s147 345 349 345c201 0 348 -144 348 -345s-147 -345 -348 -345zM383 114c123 0 202 95 202 219c0 125 -79 219 -202 219c-124 0 -203 -94 -203 -219c0 -124 79 -219 203 -219zM449 872l-115 -144h-74l87 144h102zM598 872l-115 -144
h-74l87 144h102z" />
    <glyph glyph-name="ohungarumlaut" unicode="&#x151;" horiz-adv-x="575" 
d="M287 -12c-159 0 -255 117 -255 254s96 253 255 253c160 0 256 -116 256 -253s-96 -254 -256 -254zM287 101c80 0 124 65 124 141c0 75 -44 140 -124 140c-79 0 -123 -65 -123 -140c0 -76 44 -141 123 -141zM354 700l-115 -144h-74l87 144h102zM503 700l-115 -144h-74
l87 144h102z" />
    <glyph glyph-name="Racute" unicode="&#x154;" horiz-adv-x="643" 
d="M607 0h-164l-131 237h-104v-237h-142v667h312c139 0 225 -91 225 -215c0 -117 -75 -181 -147 -198zM358 362c56 0 99 34 99 91c0 55 -43 89 -99 89h-150v-180h150zM493 872l-162 -144h-89l134 144h117z" />
    <glyph glyph-name="racute" unicode="&#x155;" horiz-adv-x="360" 
d="M190 0h-127v483h127v-65c35 42 94 77 154 77v-124c-9 2 -20 3 -35 3c-42 0 -98 -24 -119 -55v-319zM372 700l-162 -144h-89l134 144h117z" />
    <glyph glyph-name="Rcommaaccent" unicode="&#x156;" horiz-adv-x="643" 
d="M607 0h-164l-131 237h-104v-237h-142v667h312c139 0 225 -91 225 -215c0 -117 -75 -181 -147 -198zM358 362c56 0 99 34 99 91c0 55 -43 89 -99 89h-150v-180h150zM396 -138c0 -61 -34 -115 -83 -150l-44 35c27 16 57 50 63 80c-2 -2 -9 -3 -15 -3c-30 0 -53 23 -53 57
s27 62 61 62c37 0 71 -29 71 -81z" />
    <glyph glyph-name="rcommaaccent" unicode="&#x157;" horiz-adv-x="360" 
d="M190 0h-127v483h127v-65c35 42 94 77 154 77v-124c-9 2 -20 3 -35 3c-42 0 -98 -24 -119 -55v-319zM251 -138c0 -61 -34 -115 -83 -150l-44 35c27 16 57 50 63 80c-2 -2 -9 -3 -15 -3c-30 0 -53 23 -53 57s27 62 61 62c37 0 71 -29 71 -81z" />
    <glyph glyph-name="Rcaron" unicode="&#x158;" horiz-adv-x="643" 
d="M607 0h-164l-131 237h-104v-237h-142v667h312c139 0 225 -91 225 -215c0 -117 -75 -181 -147 -198zM358 362c56 0 99 34 99 91c0 55 -43 89 -99 89h-150v-180h150zM383 728h-114l-95 144h78l74 -89l70 89h78z" />
    <glyph glyph-name="rcaron" unicode="&#x159;" horiz-adv-x="360" 
d="M190 0h-127v483h127v-65c35 42 94 77 154 77v-124c-9 2 -20 3 -35 3c-42 0 -98 -24 -119 -55v-319zM261 556h-114l-95 144h78l74 -89l70 89h78z" />
    <glyph glyph-name="Sacute" unicode="&#x15a;" horiz-adv-x="600" 
d="M304 -12c-129 0 -221 43 -284 106l78 111c47 -49 120 -91 212 -91c79 0 116 35 116 74c0 116 -384 35 -384 286c0 111 96 203 253 203c106 0 194 -32 260 -93l-79 -106c-54 50 -126 73 -194 73c-60 0 -94 -26 -94 -66c0 -105 383 -34 383 -283c0 -122 -88 -214 -267 -214
zM467 872l-162 -144h-89l134 144h117z" />
    <glyph glyph-name="sacute" unicode="&#x15b;" horiz-adv-x="477" 
d="M237 -12c-84 0 -165 28 -216 75l55 92c36 -34 107 -67 167 -67c55 0 81 21 81 51c0 79 -286 14 -286 204c0 81 70 152 198 152c81 0 146 -28 194 -66l-51 -90c-29 30 -84 56 -143 56c-46 0 -76 -20 -76 -47c0 -71 287 -11 287 -206c0 -89 -76 -154 -210 -154zM411 700
l-162 -144h-89l134 144h117z" />
    <glyph glyph-name="Scircumflex" unicode="&#x15c;" horiz-adv-x="600" 
d="M443 728h-78l-73 89l-71 -89h-78l92 144h114zM304 -12c-129 0 -221 43 -284 106l78 111c47 -49 120 -91 212 -91c79 0 116 35 116 74c0 116 -384 35 -384 286c0 111 96 203 253 203c106 0 194 -32 260 -93l-79 -106c-54 50 -126 73 -194 73c-60 0 -94 -26 -94 -66
c0 -105 383 -34 383 -283c0 -122 -88 -214 -267 -214z" />
    <glyph glyph-name="scircumflex" unicode="&#x15d;" horiz-adv-x="477" 
d="M237 -12c-84 0 -165 28 -216 75l55 92c36 -34 107 -67 167 -67c55 0 81 21 81 51c0 79 -286 14 -286 204c0 81 70 152 198 152c81 0 146 -28 194 -66l-51 -90c-29 30 -84 56 -143 56c-46 0 -76 -20 -76 -47c0 -71 287 -11 287 -206c0 -89 -76 -154 -210 -154zM387 556
h-78l-73 89l-71 -89h-78l92 144h114z" />
    <glyph glyph-name="Scedilla" unicode="&#x15e;" horiz-adv-x="600" 
d="M292 -195c-48 0 -89 14 -110 31l25 51c25 -19 54 -29 82 -29c26 0 51 11 51 33c0 16 -10 26 -29 26c-13 0 -24 -6 -32 -14l-46 26l22 61c-104 10 -180 49 -235 104l78 111c47 -49 120 -91 212 -91c79 0 116 35 116 74c0 116 -384 35 -384 286c0 111 96 203 253 203
c106 0 194 -32 260 -93l-79 -106c-54 50 -126 73 -194 73c-60 0 -94 -26 -94 -66c0 -105 383 -34 383 -283c0 -119 -84 -210 -255 -214l-15 -39c10 7 22 10 35 10c37 0 67 -28 67 -70c0 -53 -50 -84 -111 -84z" />
    <glyph glyph-name="scedilla" unicode="&#x15f;" horiz-adv-x="477" 
d="M236 -195c-48 0 -89 14 -110 31l25 51c25 -19 54 -29 82 -29c26 0 51 11 51 33c0 16 -10 26 -29 26c-13 0 -24 -6 -32 -14l-46 26l22 61c-70 7 -135 33 -178 73l55 92c36 -34 107 -67 167 -67c55 0 81 21 81 51c0 79 -286 14 -286 204c0 81 70 152 198 152
c81 0 146 -28 194 -66l-51 -90c-29 30 -84 56 -143 56c-46 0 -76 -20 -76 -47c0 -71 287 -11 287 -206c0 -84 -67 -146 -186 -153l-16 -40c10 7 22 10 35 10c37 0 67 -28 67 -70c0 -53 -50 -84 -111 -84z" />
    <glyph glyph-name="Tcommaaccent" unicode="&#x162;" horiz-adv-x="582" 
d="M363 0h-143v542h-195v125h532v-125h-194v-542zM363 -138c0 -61 -34 -115 -83 -150l-44 35c27 16 57 50 63 80c-2 -2 -9 -3 -15 -3c-30 0 -53 23 -53 57s27 62 61 62c37 0 71 -29 71 -81z" />
    <glyph glyph-name="Tcommaaccent" unicode="&#x21a;" horiz-adv-x="582" 
d="M363 0h-143v542h-195v125h532v-125h-194v-542zM363 -138c0 -61 -34 -115 -83 -150l-44 35c27 16 57 50 63 80c-2 -2 -9 -3 -15 -3c-30 0 -53 23 -53 57s27 62 61 62c37 0 71 -29 71 -81z" />
    <glyph glyph-name="tcommaaccent" unicode="&#x163;" horiz-adv-x="338" 
d="M225 -12c-89 0 -136 46 -136 133v251h-80v111h80v132h127v-132h98v-111h-98v-217c0 -31 16 -54 44 -54c19 0 37 7 44 15l27 -97c-19 -17 -53 -31 -106 -31zM240 -138c0 -61 -34 -115 -83 -150l-44 35c27 16 57 50 63 80c-2 -2 -9 -3 -15 -3c-30 0 -53 23 -53 57
s27 62 61 62c37 0 71 -29 71 -81z" />
    <glyph glyph-name="tcommaaccent" unicode="&#x21b;" horiz-adv-x="338" 
d="M225 -12c-89 0 -136 46 -136 133v251h-80v111h80v132h127v-132h98v-111h-98v-217c0 -31 16 -54 44 -54c19 0 37 7 44 15l27 -97c-19 -17 -53 -31 -106 -31zM240 -138c0 -61 -34 -115 -83 -150l-44 35c27 16 57 50 63 80c-2 -2 -9 -3 -15 -3c-30 0 -53 23 -53 57
s27 62 61 62c37 0 71 -29 71 -81z" />
    <glyph glyph-name="Tcaron" unicode="&#x164;" horiz-adv-x="582" 
d="M363 0h-143v542h-195v125h532v-125h-194v-542zM350 728h-114l-95 144h78l74 -89l70 89h78z" />
    <glyph glyph-name="tcaron" unicode="&#x165;" horiz-adv-x="380" 
d="M225 -12c-89 0 -136 46 -136 133v251h-80v111h80v132h127v-132h98v-111h-98v-217c0 -31 16 -54 44 -54c19 0 37 7 44 15l27 -97c-19 -17 -53 -31 -106 -31zM402 683c0 -61 -34 -115 -83 -150l-44 35c27 16 57 50 63 80c-2 -2 -9 -3 -15 -3c-30 0 -53 23 -53 57
s27 62 61 62c37 0 71 -29 71 -81z" />
    <glyph glyph-name="Tbar" unicode="&#x166;" horiz-adv-x="582" 
d="M363 0h-143v262h-133v73h133v207h-195v125h532v-125h-194v-207h134v-73h-134v-262z" />
    <glyph glyph-name="tbar" unicode="&#x167;" horiz-adv-x="338" 
d="M285 209h-69v-54c0 -31 16 -54 44 -54c19 0 37 7 44 15l27 -97c-19 -17 -53 -31 -106 -31c-89 0 -136 46 -136 133v88h-80v73h80v90h-80v111h80v132h127v-132h98v-111h-98v-90h69v-73z" />
    <glyph glyph-name="Utilde" unicode="&#x168;" horiz-adv-x="734" 
d="M367 -12c-203 0 -301 114 -301 279v400h144v-396c0 -93 54 -157 157 -157s156 64 156 157v396h145v-400c0 -165 -98 -279 -301 -279zM426 726c-68 0 -79 68 -117 68c-20 0 -36 -19 -36 -62h-67c0 85 38 134 108 134c67 0 78 -67 116 -67c20 0 36 19 36 61h67
c0 -85 -37 -134 -107 -134z" />
    <glyph glyph-name="utilde" unicode="&#x169;" horiz-adv-x="579" 
d="M516 0h-127v61c-33 -36 -91 -73 -170 -73c-106 0 -156 58 -156 152v343h127v-293c0 -67 35 -89 89 -89c49 0 88 27 110 55v327h127v-483zM346 554c-68 0 -79 68 -117 68c-20 0 -36 -19 -36 -62h-67c0 85 38 134 108 134c67 0 78 -67 116 -67c20 0 36 19 36 61h67
c0 -85 -37 -134 -107 -134z" />
    <glyph glyph-name="Umacron" unicode="&#x16a;" horiz-adv-x="734" 
d="M367 -12c-203 0 -301 114 -301 279v400h144v-396c0 -93 54 -157 157 -157s156 64 156 157v396h145v-400c0 -165 -98 -279 -301 -279zM550 747h-363v73h363v-73z" />
    <glyph glyph-name="umacron" unicode="&#x16b;" horiz-adv-x="579" 
d="M516 0h-127v61c-33 -36 -91 -73 -170 -73c-106 0 -156 58 -156 152v343h127v-293c0 -67 35 -89 89 -89c49 0 88 27 110 55v327h127v-483zM470 574h-363v73h363v-73z" />
    <glyph glyph-name="Ubreve" unicode="&#x16c;" horiz-adv-x="734" 
d="M367 -12c-203 0 -301 114 -301 279v400h144v-396c0 -93 54 -157 157 -157s156 64 156 157v396h145v-400c0 -165 -98 -279 -301 -279zM545 803c-40 -54 -103 -88 -175 -88c-71 0 -135 34 -176 88l57 47c26 -37 68 -62 119 -62c50 0 91 23 119 62z" />
    <glyph glyph-name="ubreve" unicode="&#x16d;" horiz-adv-x="579" 
d="M516 0h-127v61c-33 -36 -91 -73 -170 -73c-106 0 -156 58 -156 152v343h127v-293c0 -67 35 -89 89 -89c49 0 88 27 110 55v327h127v-483zM467 644c-40 -54 -103 -88 -175 -88c-71 0 -135 34 -176 88l57 47c26 -37 68 -62 119 -62c50 0 91 23 119 62z" />
    <glyph glyph-name="Uring" unicode="&#x16e;" horiz-adv-x="734" 
d="M367 -12c-203 0 -301 114 -301 279v400h144v-396c0 -93 54 -157 157 -157s156 64 156 157v396h145v-400c0 -165 -98 -279 -301 -279zM369 693c-57 0 -105 48 -105 105c0 58 48 105 105 105c58 0 104 -47 104 -105c0 -57 -46 -105 -104 -105zM369 751c26 0 46 21 46 47
s-20 47 -46 47c-25 0 -47 -21 -47 -47s22 -47 47 -47z" />
    <glyph glyph-name="uring" unicode="&#x16f;" horiz-adv-x="579" 
d="M516 0h-127v61c-33 -36 -91 -73 -170 -73c-106 0 -156 58 -156 152v343h127v-293c0 -67 35 -89 89 -89c49 0 88 27 110 55v327h127v-483zM290 543c-57 0 -105 48 -105 105c0 58 48 105 105 105c58 0 104 -47 104 -105c0 -57 -46 -105 -104 -105zM290 601
c26 0 46 21 46 47s-20 47 -46 47c-25 0 -47 -21 -47 -47s22 -47 47 -47z" />
    <glyph glyph-name="Uhungarumlaut" unicode="&#x170;" horiz-adv-x="734" 
d="M367 -12c-203 0 -301 114 -301 279v400h144v-396c0 -93 54 -157 157 -157s156 64 156 157v396h145v-400c0 -165 -98 -279 -301 -279zM435 872l-115 -144h-74l87 144h102zM584 872l-115 -144h-74l87 144h102z" />
    <glyph glyph-name="uhungarumlaut" unicode="&#x171;" horiz-adv-x="579" 
d="M516 0h-127v61c-33 -36 -91 -73 -170 -73c-106 0 -156 58 -156 152v343h127v-293c0 -67 35 -89 89 -89c49 0 88 27 110 55v327h127v-483zM355 700l-115 -144h-74l87 144h102zM504 700l-115 -144h-74l87 144h102z" />
    <glyph glyph-name="Uogonek" unicode="&#x172;" horiz-adv-x="734" 
d="M367 -12c-203 0 -301 114 -301 279v400h144v-396c0 -93 54 -157 157 -157s156 64 156 157v396h145v-400c0 -134 -65 -235 -198 -267c-49 -24 -70 -55 -70 -90c0 -31 18 -42 37 -42c22 0 36 14 43 34l52 -32c-19 -32 -48 -56 -95 -56c-52 0 -100 26 -100 90
c0 32 12 60 34 84h-4z" />
    <glyph glyph-name="uogonek" unicode="&#x173;" horiz-adv-x="579" 
d="M525 -98l52 -32c-19 -32 -48 -56 -95 -56c-52 0 -100 26 -100 90c0 37 16 70 45 96h-38v61c-33 -36 -91 -73 -170 -73c-106 0 -156 58 -156 152v343h127v-293c0 -67 35 -89 89 -89c49 0 88 27 110 55v327h127v-483c-49 -24 -71 -55 -71 -90c0 -31 18 -42 37 -42
c22 0 36 14 43 34z" />
    <glyph glyph-name="Wcircumflex" unicode="&#x174;" horiz-adv-x="918" 
d="M727 0h-151l-117 458l-116 -458h-151l-191 667h159l117 -482l127 482h111l126 -482l117 482h159zM610 728h-78l-73 89l-71 -89h-78l92 144h114z" />
    <glyph glyph-name="wcircumflex" unicode="&#x175;" horiz-adv-x="770" 
d="M623 0h-136l-102 329l-102 -329h-136l-147 483h132l90 -325l106 325h113l106 -325l90 325h133zM535 556h-78l-73 89l-71 -89h-78l92 144h114z" />
    <glyph glyph-name="Ycircumflex" unicode="&#x176;" horiz-adv-x="645" 
d="M475 728h-78l-73 89l-71 -89h-78l92 144h114zM394 0h-142v273l-256 394h162l165 -267l165 267h161l-255 -394v-273z" />
    <glyph glyph-name="ycircumflex" unicode="&#x177;" horiz-adv-x="513" 
d="M47 -188l18 113c11 -5 28 -8 40 -8c33 0 55 9 67 35l18 42l-196 489h136l126 -336l127 336h136l-227 -562c-36 -91 -100 -115 -183 -117c-14 0 -47 3 -62 8zM407 556h-78l-73 89l-71 -89h-78l92 144h114z" />
    <glyph glyph-name="Zacute" unicode="&#x179;" horiz-adv-x="592" 
d="M550 0h-508v115l315 427h-315v125h501v-114l-315 -428h322v-125zM465 872l-162 -144h-89l134 144h117z" />
    <glyph glyph-name="zacute" unicode="&#x17a;" horiz-adv-x="479" 
d="M437 0h-395v95l218 277h-218v111h391v-91l-222 -281h226v-111zM408 700l-162 -144h-89l134 144h117z" />
    <glyph glyph-name="Zdotaccent" unicode="&#x17b;" horiz-adv-x="592" 
d="M550 0h-508v115l315 427h-315v125h501v-114l-315 -428h322v-125zM291 716c-38 0 -68 31 -68 68c0 38 30 68 68 68c36 0 67 -30 67 -68c0 -37 -31 -68 -67 -68z" />
    <glyph glyph-name="zdotaccent" unicode="&#x17c;" horiz-adv-x="479" 
d="M437 0h-395v95l218 277h-218v111h391v-91l-222 -281h226v-111zM239 551c-38 0 -68 31 -68 68c0 38 30 68 68 68c36 0 67 -30 67 -68c0 -37 -31 -68 -67 -68z" />
    <glyph glyph-name="longs" unicode="&#x17f;" horiz-adv-x="327" 
d="M219 0h-127v372h-80v111h80v20c0 109 65 174 162 174c47 0 97 -13 126 -46l-48 -77c-13 12 -30 19 -53 19c-36 0 -60 -23 -60 -70v-503z" />
    <glyph glyph-name="AEacute" unicode="&#x1fc;" horiz-adv-x="968" 
d="M926 0h-472v113h-234l-66 -113h-163l406 667h529v-125h-329v-140h322v-125h-322v-152h329v-125zM454 238v287l-167 -287h167zM691 872l-162 -144h-89l134 144h117z" />
    <glyph glyph-name="aeacute" unicode="&#x1fd;" horiz-adv-x="870" 
d="M841 200h-359c9 -59 57 -106 139 -106c41 0 97 18 128 48l57 -87c-48 -44 -124 -67 -199 -67c-84 0 -156 35 -199 88c-40 -47 -109 -88 -198 -88c-87 0 -177 51 -177 158c0 106 80 158 167 158c62 0 119 -20 153 -58v60c0 49 -42 81 -106 81c-51 0 -99 -19 -139 -57
l-50 89c59 53 135 76 211 76c83 0 137 -26 164 -79c35 45 85 79 173 79c138 0 235 -108 235 -265v-30zM481 288h238c-3 46 -36 103 -120 103c-78 0 -113 -55 -118 -103zM363 130c-5 9 -10 30 -10 45c-21 28 -61 44 -102 44c-50 0 -91 -28 -91 -73c0 -46 41 -72 91 -72
c41 0 88 14 112 56zM592 700l-162 -144h-89l134 144h117z" />
    <glyph glyph-name="Oslashacute" unicode="&#x1fe;" horiz-adv-x="765" 
d="M553 872l-162 -144h-89l134 144h117zM383 -12c-69 0 -132 16 -185 47l-26 -35h-103l64 84c-62 61 -99 148 -99 249c0 201 147 345 349 345c64 0 122 -15 172 -41l23 30h102l-58 -76c68 -62 109 -152 109 -258c0 -201 -147 -345 -348 -345zM383 114c123 0 202 95 202 219
c0 58 -17 109 -47 147l-259 -339c29 -17 64 -27 104 -27zM180 333c0 -52 13 -99 39 -136l255 334c-26 13 -57 21 -91 21c-124 0 -203 -94 -203 -219z" />
    <glyph glyph-name="oslashacute" unicode="&#x1ff;" horiz-adv-x="575" 
d="M457 700l-162 -144h-89l134 144h117zM119 0h-79l57 67c-42 46 -65 108 -65 175c0 137 96 253 255 253c55 0 103 -14 141 -38l22 26h80l-55 -64c44 -46 68 -109 68 -177c0 -137 -96 -254 -256 -254c-57 0 -105 15 -144 40zM287 101c80 0 124 65 124 141c0 29 -7 56 -19 79
l-171 -201c18 -12 40 -19 66 -19zM164 242c0 -28 6 -54 17 -76l169 199c-18 11 -39 17 -63 17c-79 0 -123 -65 -123 -140z" />
    <glyph glyph-name="Scommaaccent" unicode="&#x218;" horiz-adv-x="614" 
d="M314 -12c-129 0 -221 43 -284 106l78 111c47 -49 120 -91 212 -91c79 0 116 35 116 74c0 116 -384 35 -384 286c0 111 96 203 253 203c106 0 194 -32 260 -93l-79 -106c-54 50 -126 73 -194 73c-60 0 -94 -26 -94 -66c0 -105 383 -34 383 -283c0 -122 -88 -214 -267 -214
zM377 -138c0 -61 -34 -115 -83 -150l-44 35c27 16 57 50 63 80c-2 -2 -9 -3 -15 -3c-30 0 -53 23 -53 57s27 62 61 62c37 0 71 -29 71 -81z" />
    <glyph glyph-name="scommaaccent" unicode="&#x219;" horiz-adv-x="484" 
d="M237 -12c-84 0 -165 28 -216 75l55 92c36 -34 107 -67 167 -67c55 0 81 21 81 51c0 79 -286 14 -286 204c0 81 70 152 198 152c81 0 146 -28 194 -66l-51 -90c-29 30 -84 56 -143 56c-46 0 -76 -20 -76 -47c0 -71 287 -11 287 -206c0 -89 -76 -154 -210 -154zM314 -138
c0 -61 -34 -115 -83 -150l-44 35c27 16 57 50 63 80c-2 -2 -9 -3 -15 -3c-30 0 -53 23 -53 57s27 62 61 62c37 0 71 -29 71 -81z" />
    <glyph glyph-name="hsuperior" unicode="&#x2b0;" horiz-adv-x="411" 
d="M361 326h-92v188c0 43 -23 56 -58 56c-31 0 -56 -17 -69 -33v-211h-92v434h92v-159c20 23 58 47 113 47c72 0 106 -40 106 -103v-219z" />
    <glyph glyph-name="hsuperior" unicode="&#xf637;" horiz-adv-x="411" 
d="M361 326h-92v188c0 43 -23 56 -58 56c-31 0 -56 -17 -69 -33v-211h-92v434h92v-159c20 23 58 47 113 47c72 0 106 -40 106 -103v-219z" />
    <glyph glyph-name="frenchfranc" unicode="&#x20a3;" horiz-adv-x="580" 
d="M217 0h-142v109h-66v73h66v485h472v-125h-330v-140h323v-125h-323v-95h155v-73h-155v-109z" />
    <glyph glyph-name="lira" unicode="&#x20a4;" horiz-adv-x="550" 
d="M23 333v66h38c-10 21 -16 44 -16 71c0 127 125 207 243 207c111 0 190 -39 232 -121l-113 -66c-16 42 -56 71 -102 71c-59 0 -105 -37 -105 -93c0 -28 7 -49 18 -69h175v-66h-133c8 -16 15 -33 19 -52h114v-65h-116c-10 -33 -33 -60 -60 -77c15 5 34 8 49 8
c58 0 81 -33 130 -33c43 0 73 18 86 36l57 -113c-28 -28 -75 -50 -148 -50c-87 0 -120 44 -181 44c-35 0 -76 -16 -116 -38l-48 97c63 30 109 74 109 125v1h-132v65h114c-9 18 -21 35 -34 52h-80z" />
    <glyph glyph-name="uni20A6" unicode="&#x20a6;" horiz-adv-x="747" 
d="M672 0h-137l-169 231h-149v-231h-142v231h-66v73h66v65h-66v73h66v225h146l166 -225h143v225h142v-225h66v-73h-66v-65h66v-73h-66v-231zM217 435v-131h96zM441 369l89 -121v121h-89z" />
    <glyph glyph-name="peseta" unicode="&#x20a7;" horiz-adv-x="678" 
d="M674 415h-66c-16 -99 -93 -177 -221 -177h-170v-238h-142v415h-66v76h66v176h312c128 0 205 -77 221 -176h66v-76zM367 363c42 0 77 19 91 52h-241v-52h150zM217 542v-51h241c-15 32 -50 51 -91 51h-150z" />
    <glyph glyph-name="rupee" unicode="&#x20a8;" horiz-adv-x="1072" 
d="M607 0h-164l-131 237h-104v-237h-142v667h312c139 0 225 -91 225 -215c0 -117 -75 -181 -147 -198zM358 362c56 0 99 34 99 91c0 55 -43 89 -99 89h-150v-180h150zM831 -12c-84 0 -165 28 -216 75l55 92c36 -34 107 -67 167 -67c55 0 81 21 81 51c0 79 -286 14 -286 204
c0 81 70 152 198 152c81 0 146 -28 194 -66l-51 -90c-29 30 -84 56 -143 56c-46 0 -76 -20 -76 -47c0 -71 287 -11 287 -206c0 -89 -76 -154 -210 -154z" />
    <glyph glyph-name="uni20A9" unicode="&#x20a9;" horiz-adv-x="918" 
d="M727 0h-151l-59 231h-116l-58 -231h-151l-66 231h-113v73h92l-19 65h-73v73h52l-64 225h159l54 -225h130l60 225h111l59 -225h129l55 225h159l-64 -225h53v-73h-74l-18 -65h92v-73h-113zM232 369l45 -184l48 184h-93zM593 369l48 -184l44 184h-92zM459 458l-39 -154h78z
" />
    <glyph glyph-name="afii57636" unicode="&#x20aa;" horiz-adv-x="845" 
d="M349 550c176 0 234 -82 234 -219v-155h-120v144c0 80 -29 120 -114 120h-166v-440h-120v550h286zM548 0h-286v373h120v-263h166c85 0 114 40 114 120v320h120v-331c0 -137 -58 -219 -234 -219z" />
    <glyph glyph-name="afii61289" unicode="&#x2113;" horiz-adv-x="526" 
d="M63 487v-366c0 -95 56 -133 137 -133c42 0 82 10 105 31l-27 85c-12 -10 -26 -15 -43 -15c-29 0 -44 23 -44 54v101l158 105c78 51 152 109 152 184c0 85 -97 144 -209 144c-135 0 -229 -81 -229 -190zM306 439l-115 -76v124c0 63 40 101 99 101c46 0 90 -23 90 -62
c0 -33 -24 -54 -74 -87z" />
    <glyph glyph-name="afii61352" unicode="&#x2116;" horiz-adv-x="1134" 
d="M663 0h-137l-318 435v-435h-142v667h146l309 -419v419h142v-667zM931 350c-106 0 -172 76 -172 165s66 165 172 165c108 0 173 -76 173 -165s-65 -165 -173 -165zM931 424c49 0 79 36 79 91s-30 89 -79 89c-48 0 -77 -34 -77 -89s29 -91 77 -91z" />
    <glyph glyph-name="published" unicode="&#x2117;" horiz-adv-x="778" 
d="M734 334c0 -190 -155 -345 -345 -345s-345 155 -345 345s155 345 345 345s345 -155 345 -345zM698 334c0 169 -140 309 -309 309s-309 -140 -309 -309s140 -309 309 -309s309 140 309 309zM555 416c0 -71 -59 -118 -127 -118h-112v-167h-45v405h157
c67 0 127 -46 127 -120zM508 416c0 48 -37 79 -80 79h-112v-155h112c43 0 80 31 80 76z" />
    <glyph glyph-name="servicemark" unicode="&#x2120;" horiz-adv-x="476" 
d="M439 447h-28v182l-75 -182h-8l-75 182v-182h-28v220h43l64 -160l64 160h43v-220zM188 506c0 -40 -30 -67 -87 -67c-39 0 -68 15 -86 36l18 21c15 -17 39 -31 68 -31c37 0 54 16 54 38c0 59 -136 26 -136 107c0 37 34 63 80 63c38 0 65 -12 82 -32l-18 -19
c-15 18 -38 27 -63 27c-28 0 -48 -15 -48 -36c0 -53 136 -22 136 -107z" />
    <glyph glyph-name="estimated" unicode="&#x212e;" horiz-adv-x="842" 
d="M811 324h-632c-3 0 -5 -2 -5 -5v-190c0 -9 3 -17 9 -23c60 -63 146 -103 240 -103c101 0 189 44 250 115h57c-71 -83 -183 -136 -309 -136c-215 0 -390 157 -390 351s175 351 390 351s390 -157 390 -351v-9zM668 349v191c0 9 -4 18 -10 24c-60 61 -143 99 -235 99
c-94 0 -179 -40 -239 -102c-6 -6 -10 -15 -10 -24v-188c0 -3 2 -6 5 -6h485c3 0 4 3 4 6z" />
    <glyph glyph-name="arrowleft" unicode="&#x2190;" horiz-adv-x="582" 
d="M538 211h-269l12 -130l-281 205l281 204l-12 -129h269v-150z" />
    <glyph glyph-name="arrowup" unicode="&#x2191;" horiz-adv-x="582" 
d="M216 17v269l-130 -12l205 281l204 -281l-129 12v-269h-150z" />
    <glyph glyph-name="arrowright" unicode="&#x2192;" horiz-adv-x="582" 
d="M584 286l-281 -205l12 130h-268v150h268l-12 129z" />
    <glyph glyph-name="arrowdown" unicode="&#x2193;" horiz-adv-x="582" 
d="M366 555v-269l130 12l-205 -281l-204 281l129 -12v269h150z" />
    <glyph glyph-name="triangleright" unicode="&#x22b2;" horiz-adv-x="587" 
d="M589 286l-535 -309v618z" />
    <glyph glyph-name="triangleleft" unicode="&#x22b3;" horiz-adv-x="587" 
d="M535 595v-618l-535 309z" />
    <glyph glyph-name="blacksquare" unicode="&#x25a0;" horiz-adv-x="661" 
d="M618 0h-571v572h571v-572z" />
    <glyph glyph-name="triagup" unicode="&#x25b2;" horiz-adv-x="616" 
d="M617 29l-619 1l309 535z" />
    <glyph glyph-name="triagdn" unicode="&#x25bc;" horiz-adv-x="616" 
d="M617 510l-310 -535l-309 535h619z" />
    <glyph glyph-name="circlesolid" unicode="&#x25cf;" horiz-adv-x="695" 
d="M644 285c0 -164 -133 -297 -297 -297s-297 133 -297 297s133 297 297 297s297 -133 297 -297z" />
    <glyph glyph-name="blackstar" unicode="&#x2605;" horiz-adv-x="759" 
d="M759 421l-235 -171l90 -275l-235 170l-234 -170l89 275l-234 171h290l89 276l90 -276h290z" />
    <glyph glyph-name="ballotbox" unicode="&#x2610;" horiz-adv-x="661" 
d="M616 0h-571v572h571v-572zM530 79v414h-399v-414h399z" />
    <glyph glyph-name="boxchecked" unicode="&#x2611;" horiz-adv-x="661" 
d="M616 0h-571v572h486l92 168l68 -42l-75 -139v-559zM530 79v322l-168 -310l-202 246l61 57l129 -155l138 254h-357v-414h399z" />
    <glyph glyph-name="diamond" unicode="&#x2666;" horiz-adv-x="501" 
d="M501 285l-251 -250l-250 250l250 251z" />
    <glyph glyph-name="checkmark" unicode="&#x2713;" horiz-adv-x="531" 
d="M531 698l-329 -607l-202 246l61 57l129 -155l273 501z" />
    <glyph glyph-name="perthousand.onum" unicode="&#xf628;" horiz-adv-x="905" 
d="M296 423c0 -77 -55 -137 -137 -137c-81 0 -135 60 -135 137s54 139 135 139c82 0 137 -62 137 -139zM589 128c0 -77 -54 -138 -136 -138c-81 0 -134 61 -134 138s53 138 134 138c82 0 136 -61 136 -138zM534 550l-383 -550h-71l382 550h72zM219 423c0 44 -25 73 -60 73
c-33 0 -58 -29 -58 -73c0 -43 25 -71 58 -71c35 0 60 28 60 71zM513 128c0 43 -25 72 -60 72c-34 0 -59 -29 -59 -72s25 -71 59 -71c35 0 60 28 60 71zM881 128c0 -77 -55 -138 -136 -138s-135 62 -135 138c0 77 54 138 135 138s136 -61 136 -138zM805 128
c0 43 -25 72 -60 72s-59 -29 -59 -72s24 -71 59 -71s60 28 60 71z" />
    <glyph glyph-name="zero.tzero" unicode="&#xf638;" horiz-adv-x="632" 
d="M317 -12c-60 0 -109 16 -149 45l-21 -33h-99l61 93c-46 65 -68 153 -68 240c0 172 85 344 276 344c58 0 107 -17 146 -44l22 34h99l-61 -93c47 -65 70 -153 70 -241c0 -172 -85 -345 -276 -345zM317 114c95 0 131 96 131 219c0 40 -4 77 -12 108l-195 -298
c19 -19 44 -29 76 -29zM186 333c0 -39 3 -75 11 -106l194 297c-19 17 -44 27 -74 27c-95 0 -131 -95 -131 -218z" />
    <glyph glyph-name="zero.tnum" unicode="&#xf639;" horiz-adv-x="623" 
d="M312 -12c-191 0 -276 173 -276 345s85 344 276 344s276 -172 276 -344s-85 -345 -276 -345zM312 114c95 0 131 96 131 219s-35 218 -131 218c-95 0 -131 -95 -131 -218s36 -219 131 -219z" />
    <glyph glyph-name="two.tnum" unicode="&#xf63a;" horiz-adv-x="623" 
d="M569 0h-502v112c273 202 353 270 353 352c0 59 -53 87 -108 87c-76 0 -134 -30 -179 -77l-81 94c65 75 164 109 257 109c143 0 255 -80 255 -213c0 -114 -94 -213 -267 -339h272v-125z" />
    <glyph glyph-name="three.tnum" unicode="&#xf63b;" horiz-adv-x="623" 
d="M309 -12c-122 0 -214 47 -263 107l75 95c45 -48 118 -76 183 -76c81 0 126 35 126 85c0 53 -41 77 -134 77c-28 0 -73 -1 -83 -2v128c12 -1 58 -1 83 -1c74 0 124 22 124 71c0 53 -55 79 -124 79c-65 0 -123 -24 -170 -69l-71 89c54 61 138 106 255 106
c156 0 252 -70 252 -181c0 -84 -72 -139 -146 -152c68 -7 156 -60 156 -160c0 -115 -103 -196 -263 -196z" />
    <glyph glyph-name="four.tnum" unicode="&#xf63c;" horiz-adv-x="623" 
d="M496 0h-142v138h-319v112l265 417h196v-404h86v-125h-86v-138zM354 263v278l-180 -278h180z" />
    <glyph glyph-name="five.tnum" unicode="&#xf63d;" horiz-adv-x="623" 
d="M311 -12c-116 0 -200 38 -257 100l79 99c45 -47 107 -73 177 -73c79 0 124 45 124 99c0 59 -44 99 -120 99c-55 0 -100 -16 -140 -54l-99 27v382h458v-125h-316v-163c32 32 86 56 147 56c113 0 214 -81 214 -216c0 -141 -106 -231 -267 -231z" />
    <glyph glyph-name="six.tnum" unicode="&#xf63e;" horiz-adv-x="623" 
d="M332 -12c-203 0 -288 156 -288 344c0 202 114 345 311 345c81 0 149 -27 197 -69l-64 -109c-36 34 -74 52 -133 52c-98 0 -167 -83 -167 -189c0 -5 0 -9 1 -14c31 45 98 86 171 86c120 0 228 -75 228 -217c0 -130 -104 -229 -256 -229zM324 114c77 0 119 52 119 98
c0 70 -60 100 -123 100c-50 0 -99 -23 -131 -63c6 -64 42 -135 135 -135z" />
    <glyph glyph-name="seven.tnum" unicode="&#xf63f;" horiz-adv-x="623" 
d="M315 0h-156l239 542h-336v125h501v-99z" />
    <glyph glyph-name="eight.tnum" unicode="&#xf640;" horiz-adv-x="623" 
d="M312 -12c-140 0 -268 61 -268 185c0 81 63 143 143 171c-74 26 -132 74 -132 157c0 126 133 176 257 176c123 0 257 -50 257 -176c0 -83 -59 -131 -132 -157c79 -28 143 -90 143 -171c0 -124 -128 -185 -268 -185zM312 400c41 7 112 28 112 77c0 47 -47 74 -112 74
c-66 0 -113 -27 -113 -74c0 -49 72 -70 113 -77zM312 114c68 0 124 31 124 79c0 55 -83 81 -124 87c-42 -6 -124 -32 -124 -87c0 -48 54 -79 124 -79z" />
    <glyph glyph-name="nine.tnum" unicode="&#xf641;" horiz-adv-x="623" 
d="M270 -11c-81 0 -149 27 -196 69l63 109c36 -34 74 -52 133 -52c110 0 167 93 167 188v15c-32 -45 -99 -86 -172 -86c-120 0 -227 75 -227 217c0 130 103 229 255 229c203 0 288 -156 288 -344c0 -202 -114 -345 -311 -345zM305 354c51 0 99 23 131 63
c-6 64 -42 135 -135 135c-77 0 -119 -52 -119 -98c0 -70 61 -100 123 -100z" />
    <glyph glyph-name="percent.onum" unicode="&#xf642;" horiz-adv-x="613" 
d="M296 423c0 -77 -55 -137 -137 -137c-81 0 -135 60 -135 137s54 139 135 139c82 0 137 -62 137 -139zM589 128c0 -77 -54 -138 -136 -138c-81 0 -134 61 -134 138s53 138 134 138c82 0 136 -61 136 -138zM534 550l-384 -550h-71l383 550h72zM219 423c0 44 -25 73 -60 73
c-33 0 -58 -29 -58 -73c0 -42 25 -71 58 -71c35 0 60 29 60 71zM513 128c0 43 -25 72 -60 72c-34 0 -59 -29 -59 -72c0 -44 25 -71 59 -71c35 0 60 28 60 71z" />
    <glyph glyph-name="zero.tonum" unicode="&#xf643;" horiz-adv-x="623" 
d="M588 275c0 -150 -88 -287 -276 -287s-276 137 -276 287c0 151 88 287 276 287s276 -136 276 -287zM443 275c0 88 -43 161 -131 161s-131 -73 -131 -161s43 -161 131 -161s131 73 131 161z" />
    <glyph glyph-name="one.tonum" unicode="&#xf644;" horiz-adv-x="623" 
d="M451 0h-142v367l-111 -113l-81 85l210 211h124v-550z" />
    <glyph glyph-name="two.tonum" unicode="&#xf645;" horiz-adv-x="623" 
d="M542 0h-470v112c254 86 337 177 337 243c0 49 -44 81 -101 81c-69 0 -129 -26 -177 -77l-81 94c65 75 167 109 260 109c149 0 243 -71 243 -183c0 -104 -107 -206 -224 -254h213v-125z" />
    <glyph glyph-name="three.tonum" unicode="&#xf646;" horiz-adv-x="623" 
d="M309 -131c-122 0 -214 47 -263 107l75 95c45 -48 118 -76 183 -76c81 0 126 35 126 85c0 53 -41 77 -134 77c-28 0 -73 -1 -83 -2v128c12 -1 58 -1 83 -1c74 0 124 22 124 71c0 53 -55 79 -124 79c-65 0 -123 -24 -170 -69l-71 89c54 61 138 106 255 106
c156 0 252 -70 252 -181c0 -84 -72 -139 -146 -152c68 -7 156 -60 156 -160c0 -115 -103 -196 -263 -196z" />
    <glyph glyph-name="four.tonum" unicode="&#xf647;" horiz-adv-x="623" 
d="M582 27h-86v-144h-142v144h-319v113l265 410h196v-398h86v-125zM354 152v272l-180 -272h180z" />
    <glyph glyph-name="five.tonum" unicode="&#xf648;" horiz-adv-x="623" 
d="M311 -129c-116 0 -200 38 -257 100l79 99c45 -47 107 -73 177 -73c79 0 124 45 124 99c0 59 -44 99 -120 99c-55 0 -100 -16 -140 -54l-99 27v382h458v-125h-316v-163c32 32 86 56 147 56c113 0 214 -81 214 -216c0 -141 -106 -231 -267 -231z" />
    <glyph glyph-name="six.tonum" unicode="&#xf649;" horiz-adv-x="623" 
d="M332 -12c-203 0 -288 156 -288 344c0 202 114 345 311 345c81 0 149 -27 197 -69l-64 -109c-36 34 -74 52 -133 52c-98 0 -167 -83 -167 -189c0 -5 0 -9 1 -14c31 45 98 86 171 86c120 0 228 -75 228 -217c0 -130 -104 -229 -256 -229zM324 114c77 0 119 52 119 98
c0 70 -60 100 -123 100c-50 0 -99 -23 -131 -63c6 -64 42 -135 135 -135z" />
    <glyph glyph-name="seven.tonum" unicode="&#xf64a;" horiz-adv-x="623" 
d="M315 -117h-156l239 542h-336v125h501v-99z" />
    <glyph glyph-name="eight.tonum" unicode="&#xf64b;" horiz-adv-x="623" 
d="M312 -12c-140 0 -268 61 -268 185c0 81 63 143 143 171c-74 26 -132 74 -132 157c0 126 133 176 257 176c123 0 257 -50 257 -176c0 -83 -59 -131 -132 -157c79 -28 143 -90 143 -171c0 -124 -128 -185 -268 -185zM312 400c41 7 112 28 112 77c0 47 -47 74 -112 74
c-66 0 -113 -27 -113 -74c0 -49 72 -70 113 -77zM312 114c68 0 124 31 124 79c0 55 -83 81 -124 87c-42 -6 -124 -32 -124 -87c0 -48 54 -79 124 -79z" />
    <glyph glyph-name="nine.tonum" unicode="&#xf64c;" horiz-adv-x="623" 
d="M270 -127c-81 0 -149 27 -196 69l63 109c36 -34 74 -52 133 -52c110 0 167 93 167 188v15c-32 -45 -99 -86 -172 -86c-120 0 -227 75 -227 217c0 130 103 229 255 229c203 0 288 -156 288 -344c0 -202 -114 -345 -311 -345zM305 238c51 0 99 23 131 63
c-6 64 -42 135 -135 135c-77 0 -119 -52 -119 -98c0 -70 61 -100 123 -100z" />
    <glyph glyph-name="colonmonetary.onum" unicode="&#xf64d;" horiz-adv-x="585" 
d="M235 -53l17 50c-16 4 -32 9 -46 15l-22 -65h-58l30 90c-76 50 -124 134 -124 238c0 170 128 287 300 287h3l13 37h57l-15 -43c17 -3 32 -8 47 -14l19 57h58l-28 -83c36 -25 63 -58 83 -94l-110 -53c-4 8 -9 16 -15 23l-98 -288c50 5 93 36 113 77l111 -52
c-42 -77 -120 -141 -238 -141c-9 0 -17 1 -26 1l-14 -42h-57zM245 127c13 -8 28 -14 45 -18l108 321c-14 7 -29 12 -46 14zM166 275c0 -42 12 -79 34 -108l94 275c-76 -17 -128 -82 -128 -167z" />
    <glyph glyph-name="Euro.onum" unicode="&#xf64e;" horiz-adv-x="611" 
d="M399 296h-207c-1 -7 -1 -14 -1 -21c0 -8 0 -15 1 -22h207v-68h-185c28 -49 80 -81 143 -81c56 0 105 32 127 77l111 -52c-42 -77 -120 -141 -238 -141c-140 0 -250 77 -287 197h-49v68h37c-1 7 -1 14 -1 22v21h-36v68h49c36 120 147 198 287 198c118 0 196 -64 237 -140
l-110 -53c-23 45 -71 77 -127 77c-64 0 -116 -32 -144 -82h186v-68z" />
    <glyph glyph-name="florin.onum" unicode="&#xf64f;" 
d="M158 -119h-144l71 322h-42v90h62l23 102c24 108 84 166 175 166c38 0 77 -11 105 -39l-46 -101c-7 10 -19 15 -35 15c-33 0 -51 -28 -59 -63l-18 -80h84v-90h-103z" />
    <glyph glyph-name="numbersign.onum" unicode="&#xf650;" horiz-adv-x="517" 
d="M500 402l-21 -68h-79l-39 -114h81l-22 -70h-82l-50 -150h-85l50 150h-76l-49 -150h-85l50 150h-76l21 70h79l38 114h-79l21 68h81l50 148h85l-51 -148h76l51 148h85l-51 -148h77zM314 334h-75l-38 -114h75z" />
    <glyph glyph-name="sterling.onum" unicode="&#xf651;" horiz-adv-x="450" 
d="M16 224v69h46c-16 28 -28 59 -28 93c0 105 97 175 198 175c90 0 157 -32 192 -96l-98 -53c-15 37 -48 55 -81 55c-44 0 -80 -32 -80 -83c0 -34 14 -63 30 -91h127v-69h-94c2 -10 4 -19 4 -29c0 -37 -22 -69 -43 -83c7 3 14 4 21 4c49 0 69 -23 109 -23c30 0 58 12 70 29
l50 -91c-24 -25 -69 -41 -124 -41c-72 0 -93 32 -149 32c-25 0 -60 -13 -91 -29l-42 80c55 24 88 58 88 91c0 20 -8 39 -19 60h-86z" />
    <glyph glyph-name="yen.onum" unicode="&#xf652;" horiz-adv-x="565" 
d="M349 0h-131v108h-193v67h193v50h-193v68h147l-177 257h149l140 -212l137 212h149l-176 -257h144v-68h-189v-50h189v-67h-189v-108z" />
    <glyph glyph-name="cent.onum" unicode="&#xf654;" horiz-adv-x="585" 
d="M283 -83v75c-147 20 -251 130 -251 283s104 263 251 283v65h90v-64c95 -13 160 -70 196 -137l-110 -53c-17 33 -49 59 -86 71v-331c38 11 69 38 86 72l111 -52c-37 -68 -102 -125 -197 -138v-74h-90zM166 275c0 -80 47 -144 117 -164v328c-70 -20 -117 -84 -117 -164z
" />
    <glyph glyph-name="zero.dnom" unicode="&#xf655;" 
d="M371 200c0 -104 -53 -207 -172 -207s-173 103 -173 207s54 206 173 206s172 -102 172 -206zM274 200c0 78 -21 129 -75 129s-76 -51 -76 -129s22 -130 76 -130s75 52 75 130z" />
    <glyph glyph-name="one.dnom" unicode="&#xf656;" horiz-adv-x="286" 
d="M226 0h-97v277l-67 -69l-55 58l136 134h83v-400z" />
    <glyph glyph-name="two.dnom" unicode="&#xf657;" 
d="M361 0h-315v70c173 121 216 160 216 204c0 37 -30 55 -68 55c-46 0 -89 -25 -109 -49l-50 60c42 47 106 66 161 66c92 0 161 -44 161 -124c0 -66 -56 -123 -172 -205h176v-77z" />
    <glyph glyph-name="three.dnom" unicode="&#xf658;" 
d="M363 111c0 -69 -65 -118 -166 -118c-77 0 -134 27 -165 63l48 63c30 -33 77 -49 114 -49c48 0 73 19 73 47c0 39 -37 49 -88 49c-18 0 -38 0 -44 -1v76c8 -1 27 -1 43 -1c53 0 83 12 83 45c0 30 -32 44 -73 44c-40 0 -76 -13 -106 -43l-45 56c34 37 86 64 161 64
c101 0 158 -44 158 -109c0 -49 -42 -83 -89 -91c42 -3 96 -35 96 -95z" />
    <glyph glyph-name="four.dnom" unicode="&#xf659;" 
d="M373 86h-52v-86h-96v86h-196v65l158 249h134v-239h52v-75zM225 161v158l-101 -158h101z" />
    <glyph glyph-name="five.dnom" unicode="&#xf65a;" 
d="M363 132c0 -82 -65 -139 -168 -139c-71 0 -127 24 -161 63l52 64c28 -33 68 -50 109 -50c47 0 74 27 74 59c0 35 -26 60 -71 60c-34 0 -61 -11 -85 -38l-67 22v227h290v-77h-193v-97c19 19 52 33 90 33c69 0 130 -42 130 -127z" />
    <glyph glyph-name="six.dnom" unicode="&#xf65b;" 
d="M370 132c0 -80 -66 -139 -160 -139c-127 0 -182 92 -182 206c0 125 74 207 198 207c48 0 92 -15 122 -39l-41 -68c-24 21 -46 30 -81 30c-63 0 -101 -48 -102 -105c0 -3 0 -6 1 -9c21 27 60 50 103 50c75 0 142 -48 142 -133zM273 128c0 44 -37 62 -72 62
c-28 0 -56 -11 -76 -35c3 -42 25 -85 81 -85c42 0 67 30 67 58z" />
    <glyph glyph-name="seven.dnom" unicode="&#xf65c;" horiz-adv-x="371" 
d="M341 334l-148 -334h-106l150 323h-211v77h315v-66z" />
    <glyph glyph-name="eight.dnom" unicode="&#xf65d;" 
d="M368 105c0 -82 -84 -112 -170 -112c-84 0 -169 30 -169 112c0 47 42 88 95 101c-49 12 -88 45 -88 93c0 78 85 107 162 107c78 0 164 -29 164 -107c0 -48 -39 -81 -88 -93c52 -13 94 -54 94 -101zM266 286c0 30 -27 47 -68 47c-39 0 -67 -17 -67 -47c0 -35 51 -47 67 -50
c18 3 68 15 68 50zM273 114c0 41 -57 56 -75 58c-17 -2 -74 -17 -74 -58c0 -31 32 -48 74 -48c43 0 75 17 75 48z" />
    <glyph glyph-name="nine.dnom" unicode="&#xf65e;" 
d="M28 267c0 80 65 139 161 139c126 0 181 -92 181 -206c0 -125 -74 -207 -197 -207c-49 0 -92 15 -123 39l42 68c22 -21 46 -30 81 -30c60 0 100 45 100 105v9c-21 -27 -60 -50 -102 -50c-74 0 -143 48 -143 133zM125 271c0 -44 37 -62 72 -62c28 0 57 11 76 36
c-3 41 -25 84 -79 84c-43 0 -69 -30 -69 -58z" />
    <glyph glyph-name="zero.numr" unicode="&#xf661;" 
d="M371 467c0 -104 -53 -207 -172 -207s-173 103 -173 207s54 206 173 206s172 -102 172 -206zM274 467c0 78 -21 129 -75 129s-76 -51 -76 -129s22 -130 76 -130s75 52 75 130z" />
    <glyph glyph-name="one.numr" unicode="&#xf662;" horiz-adv-x="286" 
d="M226 267h-97v277l-67 -69l-55 58l136 134h83v-400z" />
    <glyph glyph-name="two.numr" unicode="&#xf663;" 
d="M361 267h-315v70c173 121 216 160 216 204c0 37 -30 55 -68 55c-46 0 -89 -25 -109 -49l-50 60c42 47 106 66 161 66c92 0 161 -44 161 -124c0 -66 -56 -123 -172 -205h176v-77z" />
    <glyph glyph-name="three.numr" unicode="&#xf664;" 
d="M363 378c0 -69 -65 -118 -166 -118c-77 0 -134 27 -165 63l48 63c30 -33 77 -49 114 -49c48 0 73 19 73 47c0 39 -37 49 -88 49c-18 0 -38 0 -44 -1v76c8 -1 27 -1 43 -1c53 0 83 12 83 45c0 30 -32 44 -73 44c-40 0 -76 -13 -106 -43l-45 56c34 37 86 64 161 64
c101 0 158 -44 158 -109c0 -49 -42 -83 -89 -91c42 -3 96 -35 96 -95z" />
    <glyph glyph-name="four.numr" unicode="&#xf665;" 
d="M373 353h-52v-86h-96v86h-196v65l158 249h134v-239h52v-75zM225 428v158l-101 -158h101z" />
    <glyph glyph-name="five.numr" unicode="&#xf666;" 
d="M363 399c0 -82 -65 -139 -168 -139c-71 0 -127 24 -161 63l52 64c28 -33 68 -50 109 -50c47 0 74 27 74 59c0 35 -26 60 -71 60c-34 0 -61 -11 -85 -38l-67 22v227h290v-77h-193v-97c19 19 52 33 90 33c69 0 130 -42 130 -127z" />
    <glyph glyph-name="six.numr" unicode="&#xf667;" 
d="M370 399c0 -80 -66 -139 -160 -139c-127 0 -182 92 -182 206c0 125 74 207 198 207c48 0 92 -15 122 -39l-41 -68c-24 21 -46 30 -81 30c-63 0 -101 -48 -102 -105c0 -3 0 -6 1 -9c21 27 60 50 103 50c75 0 142 -48 142 -133zM273 395c0 44 -37 62 -72 62
c-28 0 -56 -11 -76 -35c3 -42 25 -85 81 -85c42 0 67 30 67 58z" />
    <glyph glyph-name="seven.numr" unicode="&#xf668;" horiz-adv-x="371" 
d="M341 601l-148 -334h-106l150 323h-211v77h315v-66z" />
    <glyph glyph-name="eight.numr" unicode="&#xf669;" 
d="M368 372c0 -82 -84 -112 -170 -112c-84 0 -169 30 -169 112c0 47 42 88 95 101c-49 12 -88 45 -88 93c0 78 85 107 162 107c78 0 164 -29 164 -107c0 -48 -39 -81 -88 -93c52 -13 94 -54 94 -101zM266 553c0 30 -27 47 -68 47c-39 0 -67 -17 -67 -47c0 -35 51 -47 67 -50
c18 3 68 15 68 50zM273 381c0 41 -57 56 -75 58c-17 -2 -74 -17 -74 -58c0 -31 32 -48 74 -48c43 0 75 17 75 48z" />
    <glyph glyph-name="nine.numr" unicode="&#xf66a;" 
d="M28 534c0 80 65 139 161 139c126 0 181 -92 181 -206c0 -125 -74 -207 -197 -207c-49 0 -92 15 -123 39l42 68c22 -21 46 -30 81 -30c60 0 100 45 100 105v9c-21 -27 -60 -50 -102 -50c-74 0 -143 48 -143 133zM125 538c0 -44 37 -62 72 -62c28 0 57 11 76 36
c-3 41 -25 84 -79 84c-43 0 -69 -30 -69 -58z" />
    <glyph glyph-name="Abreve.smcp" unicode="&#xf66d;" horiz-adv-x="597" 
d="M218 550h161l223 -550h-148l-36 91h-239l-35 -91h-149zM380 206l-81 210l-82 -210h163zM475 684c-40 -54 -103 -88 -175 -88c-71 0 -135 34 -176 88l57 47c26 -37 68 -62 119 -62c50 0 91 23 119 62z" />
    <glyph glyph-name="Amacron.smcp" unicode="&#xf66e;" horiz-adv-x="597" 
d="M218 550h161l223 -550h-148l-36 91h-239l-35 -91h-149zM380 206l-81 210l-82 -210h163zM481 625h-363v73h363v-73z" />
    <glyph glyph-name="Aogonek.smcp" unicode="&#xf66f;" horiz-adv-x="597" 
d="M218 550h161l223 -550c-49 -24 -71 -55 -71 -90c0 -31 18 -42 37 -42c22 0 36 14 43 34l52 -32c-19 -32 -48 -56 -95 -56c-52 0 -100 26 -100 90c0 37 16 70 45 96h-59l-36 91h-239l-35 -91h-149zM380 206l-81 210l-82 -210h163z" />
    <glyph glyph-name="AEacute.smcp" unicode="&#xf670;" horiz-adv-x="845" 
d="M614 750l-162 -144h-89l134 144h117zM803 0h-415v91h-191l-54 -91h-149l342 550h467v-115h-283v-98h277v-115h-277v-107h283v-115zM388 206v210l-128 -210h128z" />
    <glyph glyph-name="Cacute.smcp" unicode="&#xf671;" horiz-adv-x="585" 
d="M332 -12c-172 0 -300 118 -300 287c0 170 128 287 300 287c118 0 196 -64 237 -140l-110 -53c-23 45 -71 77 -127 77c-96 0 -166 -73 -166 -171c0 -97 70 -171 166 -171c56 0 105 32 127 77l111 -52c-42 -77 -120 -141 -238 -141zM503 750l-162 -144h-89l134 144h117z
" />
    <glyph glyph-name="Ccaron.smcp" unicode="&#xf672;" horiz-adv-x="585" 
d="M332 -12c-172 0 -300 118 -300 287c0 170 128 287 300 287c118 0 196 -64 237 -140l-110 -53c-23 45 -71 77 -127 77c-96 0 -166 -73 -166 -171c0 -97 70 -171 166 -171c56 0 105 32 127 77l111 -52c-42 -77 -120 -141 -238 -141zM393 606h-114l-95 144h78l74 -89l70 89
h78z" />
    <glyph glyph-name="Ccircumflex.smcp" unicode="&#xf673;" horiz-adv-x="585" 
d="M332 -12c-172 0 -300 118 -300 287c0 170 128 287 300 287c118 0 196 -64 237 -140l-110 -53c-23 45 -71 77 -127 77c-96 0 -166 -73 -166 -171c0 -97 70 -171 166 -171c56 0 105 32 127 77l111 -52c-42 -77 -120 -141 -238 -141zM484 606h-78l-73 89l-71 -89h-78l92 144
h114z" />
    <glyph glyph-name="Cdotaccent.smcp" unicode="&#xf674;" horiz-adv-x="585" 
d="M332 -12c-172 0 -300 118 -300 287c0 170 128 287 300 287c118 0 196 -64 237 -140l-110 -53c-23 45 -71 77 -127 77c-96 0 -166 -73 -166 -171c0 -97 70 -171 166 -171c56 0 105 32 127 77l111 -52c-42 -77 -120 -141 -238 -141zM334 614c-38 0 -68 31 -68 68
c0 38 30 68 68 68c36 0 67 -30 67 -68c0 -37 -31 -68 -67 -68z" />
    <glyph glyph-name="Dcaron.smcp" unicode="&#xf675;" horiz-adv-x="626" 
d="M285 0h-231v550h231c182 0 300 -109 300 -275s-118 -275 -300 -275zM285 115c109 0 166 73 166 160c0 89 -51 160 -166 160h-99v-320h99zM367 606h-114l-95 144h78l74 -89l70 89h78z" />
    <glyph glyph-name="Dcroat.smcp" unicode="&#xf676;" horiz-adv-x="635" 
d="M294 0h-231v232h-54v87h54v231h231c182 0 300 -109 300 -275s-118 -275 -300 -275zM309 232h-114v-117h99c109 0 166 73 166 160c0 89 -51 160 -166 160h-99v-116h114v-87z" />
    <glyph glyph-name="Ebreve.smcp" unicode="&#xf677;" horiz-adv-x="520" 
d="M478 0h-415v550h415v-115h-283v-98h277v-115h-277v-107h283v-115zM446 684c-40 -54 -103 -88 -175 -88c-71 0 -135 34 -176 88l57 47c26 -37 68 -62 119 -62c50 0 91 23 119 62z" />
    <glyph glyph-name="Ecaron.smcp" unicode="&#xf678;" horiz-adv-x="520" 
d="M478 0h-415v550h415v-115h-283v-98h277v-115h-277v-107h283v-115zM330 606h-114l-95 144h78l74 -89l70 89h78z" />
    <glyph glyph-name="Edotaccent.smcp" unicode="&#xf679;" horiz-adv-x="520" 
d="M478 0h-415v550h415v-115h-283v-98h277v-115h-277v-107h283v-115zM276 614c-38 0 -68 31 -68 68c0 38 30 68 68 68c36 0 67 -30 67 -68c0 -37 -31 -68 -67 -68z" />
    <glyph glyph-name="Emacron.smcp" unicode="&#xf67a;" horiz-adv-x="520" 
d="M478 0h-415v550h415v-115h-283v-98h277v-115h-277v-107h283v-115zM451 625h-363v73h363v-73z" />
    <glyph glyph-name="Eng.smcp" unicode="&#xf67b;" horiz-adv-x="649" 
d="M373 -196c-58 0 -112 18 -153 59l53 100c21 -24 52 -43 90 -43c52 0 85 32 89 80h-1l-256 345v-345h-132v550h142l249 -332v332h132v-554c0 -133 -86 -192 -213 -192z" />
    <glyph glyph-name="Eogonek.smcp" unicode="&#xf67c;" horiz-adv-x="520" 
d="M487 -98l52 -32c-19 -32 -48 -56 -95 -56c-52 0 -100 26 -100 90c0 37 16 70 45 96h-326v550h415v-115h-283v-98h277v-115h-277v-107h283v-115c-49 -24 -71 -55 -71 -90c0 -31 18 -42 37 -42c22 0 36 14 43 34z" />
    <glyph glyph-name="Gbreve.smcp" unicode="&#xf67d;" horiz-adv-x="616" 
d="M334 -12c-170 0 -302 114 -302 287c0 174 132 287 302 287c108 0 186 -55 229 -118l-107 -62c-26 36 -69 63 -122 63c-98 0 -167 -71 -167 -170c0 -98 69 -171 167 -171c49 0 86 20 108 39v58h-131v109h263v-217c-60 -64 -142 -105 -240 -105zM511 684
c-40 -54 -103 -88 -175 -88c-71 0 -135 34 -176 88l57 47c26 -37 68 -62 119 -62c50 0 91 23 119 62z" />
    <glyph glyph-name="Gcircumflex.smcp" unicode="&#xf67e;" horiz-adv-x="616" 
d="M334 -12c-170 0 -302 114 -302 287c0 174 132 287 302 287c108 0 186 -55 229 -118l-107 -62c-26 36 -69 63 -122 63c-98 0 -167 -71 -167 -170c0 -98 69 -171 167 -171c49 0 86 20 108 39v58h-131v109h263v-217c-60 -64 -142 -105 -240 -105zM484 606h-78l-73 89
l-71 -89h-78l92 144h114z" />
    <glyph glyph-name="Gcommaaccent.smcp" unicode="&#xf67f;" horiz-adv-x="616" 
d="M334 -12c-170 0 -302 114 -302 287c0 174 132 287 302 287c108 0 186 -55 229 -118l-107 -62c-26 36 -69 63 -122 63c-98 0 -167 -71 -167 -170c0 -98 69 -171 167 -171c49 0 86 20 108 39v58h-131v109h263v-217c-60 -64 -142 -105 -240 -105zM406 -138
c0 -61 -34 -115 -83 -150l-44 35c27 16 57 50 63 80c-2 -2 -9 -3 -15 -3c-30 0 -53 23 -53 57s27 62 61 62c37 0 71 -29 71 -81z" />
    <glyph glyph-name="Gdotaccent.smcp" unicode="&#xf680;" horiz-adv-x="616" 
d="M334 -12c-170 0 -302 114 -302 287c0 174 132 287 302 287c108 0 186 -55 229 -118l-107 -62c-26 36 -69 63 -122 63c-98 0 -167 -71 -167 -170c0 -98 69 -171 167 -171c49 0 86 20 108 39v58h-131v109h263v-217c-60 -64 -142 -105 -240 -105zM333 614
c-38 0 -68 31 -68 68c0 38 30 68 68 68c36 0 67 -30 67 -68c0 -37 -31 -68 -67 -68z" />
    <glyph glyph-name="Hcircumflex.smcp" unicode="&#xf681;" horiz-adv-x="651" 
d="M588 0h-132v224h-261v-224h-132v550h132v-211h261v211h132v-550zM474 606h-78l-73 89l-71 -89h-78l92 144h114z" />
    <glyph glyph-name="Hbar.smcp" unicode="&#xf682;" horiz-adv-x="666" 
d="M597 0h-132v224h-261v-224h-132v411h-63v73h63v66h132v-66h261v66h132v-66h61v-73h-61v-411zM204 339h261v72h-261v-72z" />
    <glyph glyph-name="Ibreve.smcp" unicode="&#xf683;" horiz-adv-x="253" 
d="M193 0h-132v550h132v-550zM302 684c-40 -54 -103 -88 -175 -88c-71 0 -135 34 -176 88l57 47c26 -37 68 -62 119 -62c50 0 91 23 119 62z" />
    <glyph glyph-name="IJ.smcp" unicode="&#xf684;" horiz-adv-x="691" 
d="M195 0h-132v550h132v-550zM415 -12c-57 0 -112 19 -153 59l53 100c22 -24 52 -43 90 -43c55 0 90 34 90 87v359h133v-370c0 -132 -86 -192 -213 -192z" />
    <glyph glyph-name="Imacron.smcp" unicode="&#xf685;" horiz-adv-x="253" 
d="M193 0h-132v550h132v-550zM310 625h-363v73h363v-73z" />
    <glyph glyph-name="Iogonek.smcp" unicode="&#xf686;" horiz-adv-x="253" 
d="M203 -98l52 -32c-19 -32 -48 -56 -95 -56c-52 0 -100 26 -100 90c0 37 16 70 45 96h-43v550h132v-550c-49 -24 -71 -55 -71 -90c0 -31 18 -42 37 -42c22 0 36 14 43 34z" />
    <glyph glyph-name="Itilde.smcp" unicode="&#xf687;" horiz-adv-x="253" 
d="M194 0h-132v550h132v-550zM186 588c-68 0 -79 68 -117 68c-20 0 -36 -19 -36 -62h-67c0 85 38 134 108 134c67 0 78 -67 116 -67c20 0 36 19 36 61h67c0 -85 -37 -134 -107 -134z" />
    <glyph glyph-name="Jcircumflex.smcp" unicode="&#xf688;" horiz-adv-x="433" 
d="M157 -12c-57 0 -112 19 -153 59l53 100c22 -24 52 -43 90 -43c55 0 90 34 90 87v359h133v-370c0 -132 -86 -192 -213 -192zM454 606h-78l-73 89l-71 -89h-78l92 144h114z" />
    <glyph glyph-name="Kcommaaccent.smcp" unicode="&#xf689;" horiz-adv-x="566" 
d="M565 0h-160l-170 215l-40 -46v-169h-132v550h132v-233l195 233h160l-230 -258zM355 -138c0 -61 -34 -115 -83 -150l-44 35c27 16 57 50 63 80c-2 -2 -9 -3 -15 -3c-30 0 -53 23 -53 57s27 62 61 62c37 0 71 -29 71 -81z" />
    <glyph glyph-name="Lacute.smcp" unicode="&#xf68a;" horiz-adv-x="469" 
d="M437 0h-374v550h132v-435h242v-115zM422 750l-162 -144h-89l134 144h117z" />
    <glyph glyph-name="Lcaron.smcp" unicode="&#xf68b;" horiz-adv-x="469" 
d="M437 0h-374v550h132v-435h242v-115zM390 478c0 -61 -34 -115 -83 -150l-44 35c27 16 57 50 63 80c-2 -2 -9 -3 -15 -3c-30 0 -53 23 -53 57s27 62 61 62c37 0 71 -29 71 -81z" />
    <glyph glyph-name="Lcommaaccent.smcp" unicode="&#xf68c;" horiz-adv-x="469" 
d="M437 0h-374v550h132v-435h242v-115zM319 -138c0 -61 -34 -115 -83 -150l-44 35c27 16 57 50 63 80c-2 -2 -9 -3 -15 -3c-30 0 -53 23 -53 57s27 62 61 62c37 0 71 -29 71 -81z" />
    <glyph glyph-name="Ldot.smcp" unicode="&#xf68d;" horiz-adv-x="499" 
d="M437 0h-374v550h132v-435h242v-115zM463 304c0 -43 -37 -80 -81 -80s-80 37 -80 80c0 44 36 81 80 81s81 -37 81 -81z" />
    <glyph glyph-name="Nacute.smcp" unicode="&#xf68e;" horiz-adv-x="649" 
d="M586 0h-135l-256 345v-345h-132v550h142l249 -332v332h132v-550zM492 750l-162 -144h-89l134 144h117z" />
    <glyph glyph-name="Ncaron.smcp" unicode="&#xf68f;" horiz-adv-x="649" 
d="M586 0h-135l-256 345v-345h-132v550h142l249 -332v332h132v-550zM382 606h-114l-95 144h78l74 -89l70 89h78z" />
    <glyph glyph-name="Ncommaaccent.smcp" unicode="&#xf690;" horiz-adv-x="649" 
d="M586 0h-135l-256 345v-345h-132v550h142l249 -332v332h132v-550zM395 -138c0 -61 -34 -115 -83 -150l-44 35c27 16 57 50 63 80c-2 -2 -9 -3 -15 -3c-30 0 -53 23 -53 57s27 62 61 62c37 0 71 -29 71 -81z" />
    <glyph glyph-name="Obreve.smcp" unicode="&#xf691;" horiz-adv-x="655" 
d="M327 -12c-175 0 -295 122 -295 287c0 166 120 287 295 287c174 0 296 -121 296 -287c0 -165 -122 -287 -296 -287zM327 104c98 0 161 75 161 171c0 97 -63 171 -161 171s-161 -74 -161 -171c0 -96 63 -171 161 -171zM504 684c-40 -54 -103 -88 -175 -88
c-71 0 -135 34 -176 88l57 47c26 -37 68 -62 119 -62c50 0 91 23 119 62z" />
    <glyph glyph-name="Ohungarumlaut.smcp" unicode="&#xf692;" horiz-adv-x="655" 
d="M327 -12c-175 0 -295 122 -295 287c0 166 120 287 295 287c174 0 296 -121 296 -287c0 -165 -122 -287 -296 -287zM327 104c98 0 161 75 161 171c0 97 -63 171 -161 171s-161 -74 -161 -171c0 -96 63 -171 161 -171zM396 750l-115 -144h-74l87 144h102zM545 750
l-115 -144h-74l87 144h102z" />
    <glyph glyph-name="Omacron.smcp" unicode="&#xf693;" horiz-adv-x="655" 
d="M327 -12c-175 0 -295 122 -295 287c0 166 120 287 295 287c174 0 296 -121 296 -287c0 -165 -122 -287 -296 -287zM327 104c98 0 161 75 161 171c0 97 -63 171 -161 171s-161 -74 -161 -171c0 -96 63 -171 161 -171zM510 628h-363v73h363v-73z" />
    <glyph glyph-name="Oslashacute.smcp" unicode="&#xf694;" horiz-adv-x="655" 
d="M327 -12c-56 0 -107 12 -149 35l-18 -23h-102l55 70c-51 51 -81 123 -81 205c0 166 120 287 295 287c55 0 104 -12 147 -34l17 22h102l-54 -68c53 -51 84 -124 84 -207c0 -165 -122 -287 -296 -287zM327 104c98 0 161 75 161 171c0 39 -11 75 -30 104l-204 -259
c21 -10 46 -16 73 -16zM166 275c0 -39 10 -74 28 -102l203 258c-20 10 -44 15 -70 15c-98 0 -161 -74 -161 -171zM499 750l-162 -144h-89l134 144h117z" />
    <glyph glyph-name="Racute.smcp" unicode="&#xf695;" horiz-adv-x="574" 
d="M539 0h-151l-109 189h-84v-189h-132v550h278c122 0 193 -81 193 -180c0 -100 -63 -155 -126 -168zM325 304c48 0 75 27 75 66c0 38 -28 65 -75 65h-130v-131h130zM448 750l-162 -144h-89l134 144h117z" />
    <glyph glyph-name="Rcaron.smcp" unicode="&#xf696;" horiz-adv-x="574" 
d="M539 0h-151l-109 189h-84v-189h-132v550h278c122 0 193 -81 193 -180c0 -100 -63 -155 -126 -168zM325 304c48 0 75 27 75 66c0 38 -28 65 -75 65h-130v-131h130zM338 606h-114l-95 144h78l74 -89l70 89h78z" />
    <glyph glyph-name="Rcommaaccent.smcp" unicode="&#xf697;" horiz-adv-x="574" 
d="M539 0h-151l-109 189h-84v-189h-132v550h278c122 0 193 -81 193 -180c0 -100 -63 -155 -126 -168zM325 304c48 0 75 27 75 66c0 38 -28 65 -75 65h-130v-131h130zM351 -138c0 -61 -34 -115 -83 -150l-44 35c27 16 57 50 63 80c-2 -2 -9 -3 -15 -3c-30 0 -53 23 -53 57
s27 62 61 62c37 0 71 -29 71 -81z" />
    <glyph glyph-name="Sacute.smcp" unicode="&#xf698;" horiz-adv-x="516" 
d="M256 -12c-105 0 -190 36 -238 83l60 102c38 -37 109 -72 182 -72c68 0 98 25 98 59c0 91 -322 24 -322 231c0 93 86 171 221 171c94 0 169 -30 224 -79l-62 -95c-42 39 -109 61 -164 61c-52 0 -84 -22 -84 -54c0 -81 322 -19 322 -230c0 -106 -83 -177 -237 -177z
M428 750l-162 -144h-89l134 144h117z" />
    <glyph glyph-name="Scedilla.smcp" unicode="&#xf699;" horiz-adv-x="516" 
d="M254 -195c-48 0 -89 14 -110 31l25 51c25 -19 54 -29 82 -29c26 0 51 11 51 33c0 16 -10 26 -29 26c-13 0 -24 -6 -32 -14l-46 26l22 61c-87 7 -157 40 -199 81l60 102c38 -37 109 -72 182 -72c68 0 98 25 98 59c0 91 -322 24 -322 231c0 93 86 171 221 171
c94 0 169 -30 224 -79l-62 -95c-42 39 -109 61 -164 61c-52 0 -84 -22 -84 -54c0 -81 322 -19 322 -230c0 -101 -75 -169 -214 -176l-16 -40c10 7 22 10 35 10c37 0 67 -28 67 -70c0 -53 -50 -84 -111 -84z" />
    <glyph glyph-name="Scircumflex.smcp" unicode="&#xf69a;" horiz-adv-x="516" 
d="M256 -12c-105 0 -190 36 -238 83l60 102c38 -37 109 -72 182 -72c68 0 98 25 98 59c0 91 -322 24 -322 231c0 93 86 171 221 171c94 0 169 -30 224 -79l-62 -95c-42 39 -109 61 -164 61c-52 0 -84 -22 -84 -54c0 -81 322 -19 322 -230c0 -106 -83 -177 -237 -177z
M411 606h-78l-73 89l-71 -89h-78l92 144h114z" />
    <glyph glyph-name="Scommaaccent.smcp" unicode="&#xf69b;" horiz-adv-x="516" 
d="M256 -12c-105 0 -190 36 -238 83l60 102c38 -37 109 -72 182 -72c68 0 98 25 98 59c0 91 -322 24 -322 231c0 93 86 171 221 171c94 0 169 -30 224 -79l-62 -95c-42 39 -109 61 -164 61c-52 0 -84 -22 -84 -54c0 -81 322 -19 322 -230c0 -106 -83 -177 -237 -177z
M330 -138c0 -61 -34 -115 -83 -150l-44 35c27 16 57 50 63 80c-2 -2 -9 -3 -15 -3c-30 0 -53 23 -53 57s27 62 61 62c37 0 71 -29 71 -81z" />
    <glyph glyph-name="Tbar.smcp" unicode="&#xf69c;" horiz-adv-x="486" 
d="M309 0h-132v206h-102v73h102v156h-156v115h445v-115h-157v-156h104v-73h-104v-206z" />
    <glyph glyph-name="Tcaron.smcp" unicode="&#xf69d;" horiz-adv-x="486" 
d="M309 0h-132v435h-156v115h445v-115h-157v-435zM303 606h-114l-95 144h78l74 -89l70 89h78z" />
    <glyph glyph-name="Tcommaaccent.smcp" unicode="&#xf69e;" horiz-adv-x="486" 
d="M309 0h-132v435h-156v115h445v-115h-157v-435zM313 -138c0 -61 -34 -115 -83 -150l-44 35c27 16 57 50 63 80c-2 -2 -9 -3 -15 -3c-30 0 -53 23 -53 57s27 62 61 62c37 0 71 -29 71 -81z" />
    <glyph glyph-name="Ubreve.smcp" unicode="&#xf69f;" horiz-adv-x="646" 
d="M323 -12c-175 0 -260 94 -260 230v332h133v-320c0 -75 45 -126 127 -126c81 0 127 51 127 126v320h133v-331c0 -137 -84 -231 -260 -231zM498 684c-40 -54 -103 -88 -175 -88c-71 0 -135 34 -176 88l57 47c26 -37 68 -62 119 -62c50 0 91 23 119 62z" />
    <glyph glyph-name="Uhungarumlaut.smcp" unicode="&#xf6a0;" horiz-adv-x="646" 
d="M323 -12c-175 0 -260 94 -260 230v332h133v-320c0 -75 45 -126 127 -126c81 0 127 51 127 126v320h133v-331c0 -137 -84 -231 -260 -231zM390 750l-115 -144h-74l87 144h102zM539 750l-115 -144h-74l87 144h102z" />
    <glyph glyph-name="Umacron.smcp" unicode="&#xf6a1;" horiz-adv-x="646" 
d="M323 -12c-175 0 -260 94 -260 230v332h133v-320c0 -75 45 -126 127 -126c81 0 127 51 127 126v320h133v-331c0 -137 -84 -231 -260 -231zM505 625h-363v73h363v-73z" />
    <glyph glyph-name="Uogonek.smcp" unicode="&#xf6a2;" horiz-adv-x="646" 
d="M430 -98l52 -32c-19 -32 -48 -56 -95 -56c-52 0 -100 26 -100 90c0 32 12 60 34 84c-174 1 -258 94 -258 230v332h133v-320c0 -75 45 -126 127 -126c81 0 127 51 127 126v320h133v-331c0 -109 -53 -190 -162 -219c-49 -24 -71 -55 -71 -90c0 -31 18 -42 37 -42
c22 0 36 14 43 34z" />
    <glyph glyph-name="Uring.smcp" unicode="&#xf6a3;" horiz-adv-x="646" 
d="M323 -12c-175 0 -260 94 -260 230v332h133v-320c0 -75 45 -126 127 -126c81 0 127 51 127 126v320h133v-331c0 -137 -84 -231 -260 -231zM324 598c-57 0 -105 48 -105 105c0 58 48 105 105 105c58 0 104 -47 104 -105c0 -57 -46 -105 -104 -105zM324 656
c26 0 46 21 46 47s-20 47 -46 47c-25 0 -47 -21 -47 -47s22 -47 47 -47z" />
    <glyph glyph-name="Utilde.smcp" unicode="&#xf6a4;" horiz-adv-x="646" 
d="M323 -12c-175 0 -260 94 -260 230v332h133v-320c0 -75 45 -126 127 -126c81 0 127 51 127 126v320h133v-331c0 -137 -84 -231 -260 -231zM380 604c-68 0 -79 68 -117 68c-20 0 -36 -19 -36 -62h-67c0 85 38 134 108 134c67 0 78 -67 116 -67c20 0 36 19 36 61h67
c0 -85 -37 -134 -107 -134z" />
    <glyph glyph-name="Wcircumflex.smcp" unicode="&#xf6a6;" horiz-adv-x="797" 
d="M549 606h-78l-73 89l-71 -89h-78l92 144h114zM633 0h-138l-97 358l-95 -358h-138l-166 550h148l95 -376l105 376h103l105 -377l96 377h147z" />
    <glyph glyph-name="Ycircumflex.smcp" unicode="&#xf6a9;" horiz-adv-x="565" 
d="M349 0h-131v226l-223 324h149l140 -212l137 212h149l-221 -324v-226zM435 606h-78l-73 89l-71 -89h-78l92 144h114z" />
    <glyph glyph-name="Zacute.smcp" unicode="&#xf6ab;" horiz-adv-x="524" 
d="M488 0h-452v96l263 338h-263v116h445v-96l-262 -338h269v-116zM429 750l-162 -144h-89l134 144h117z" />
    <glyph glyph-name="Zdotaccent.smcp" unicode="&#xf6ac;" horiz-adv-x="524" 
d="M488 0h-452v96l263 338h-263v116h445v-96l-262 -338h269v-116zM273 614c-38 0 -68 31 -68 68c0 38 30 68 68 68c36 0 67 -30 67 -68c0 -37 -31 -68 -67 -68z" />
    <glyph glyph-name="Idotaccent.smcp" unicode="&#xf6ad;" horiz-adv-x="235" 
d="M186 0h-132v550h132v-550zM120 614c-38 0 -68 31 -68 68c0 38 30 68 68 68c36 0 67 -30 67 -68c0 -37 -31 -68 -67 -68z" />
    <glyph glyph-name="parenleft.case" unicode="&#xf6ae;" horiz-adv-x="297" 
d="M279 -47l-79 -62c-98 109 -159 281 -159 442s61 333 159 442l79 -60c-67 -122 -101 -232 -101 -382c0 -149 34 -260 101 -380z" />
    <glyph glyph-name="parenright.case" unicode="&#xf6af;" horiz-adv-x="298" 
d="M18 -47l79 -62c98 109 160 281 160 442s-62 333 -160 442l-79 -60c68 -122 101 -232 101 -382c0 -149 -33 -260 -101 -380z" />
    <glyph glyph-name="bracketleft.case" unicode="&#xf6b0;" horiz-adv-x="280" 
d="M263 -100h-216v868h216v-85h-124v-698h124v-85z" />
    <glyph glyph-name="bracketright.case" unicode="&#xf6b1;" horiz-adv-x="280" 
d="M233 -100h-215v85h124v698h-124v85h215v-868z" />
    <glyph glyph-name="braceleft.case" unicode="&#xf6b2;" horiz-adv-x="288" 
d="M271 -100h-60c-81 0 -155 60 -155 159v172c0 37 -17 67 -52 67v72c35 0 52 30 52 67v171c0 99 74 160 155 160h60v-85h-60c-35 0 -63 -29 -63 -74v-185c0 -42 -13 -76 -46 -90c33 -14 46 -48 46 -90v-184c0 -45 28 -75 63 -75h60v-85z" />
    <glyph glyph-name="braceright.case" unicode="&#xf6b3;" horiz-adv-x="288" 
d="M17 -100v85h61c34 0 63 30 63 75v184c0 42 13 76 46 90c-33 14 -46 48 -46 90v185c0 45 -29 74 -63 74h-61v85h61c80 0 155 -61 155 -160v-171c0 -37 17 -67 52 -67v-72c-35 0 -52 -30 -52 -67v-172c0 -99 -75 -159 -155 -159h-61z" />
    <glyph glyph-name="exclamdown.case" unicode="&#xf6b4;" horiz-adv-x="255" 
d="M51 0l20 449h112l21 -449h-153zM46 598c0 43 37 80 81 80s80 -37 80 -80c0 -44 -36 -81 -80 -81s-81 37 -81 81z" />
    <glyph glyph-name="questiondown.case" unicode="&#xf6b5;" horiz-adv-x="456" 
d="M278 462c21 -23 33 -54 33 -89c0 -118 -147 -132 -147 -201c0 -31 24 -57 79 -57c50 0 92 24 123 62l81 -91c-53 -63 -133 -97 -219 -97c-129 0 -208 65 -208 158c0 146 167 157 167 241c0 16 -8 33 -19 42zM230 678c44 0 81 -37 81 -81s-37 -81 -81 -81s-81 37 -81 81
s37 81 81 81z" />
    <glyph glyph-name="guillemotleft.case" unicode="&#xf6b6;" horiz-adv-x="527" 
d="M497 162h-117l-160 180l160 177h117l-160 -177zM308 162h-118l-160 180l160 177h118l-160 -177z" />
    <glyph glyph-name="guillemotright.case" unicode="&#xf6b7;" horiz-adv-x="527" 
d="M308 342l-160 -180h-118l160 180l-160 177h118zM497 342l-160 -180h-117l160 180l-160 177h117z" />
    <glyph glyph-name="guilsinglleft.case" unicode="&#xf6b8;" horiz-adv-x="338" 
d="M308 162h-118l-160 180l160 177h118l-160 -177z" />
    <glyph glyph-name="guilsinglright.case" unicode="&#xf6b9;" horiz-adv-x="338" 
d="M308 342l-160 -180h-118l160 180l-160 177h118z" />
    <glyph glyph-name="hyphen.case" unicode="&#xf6ba;" horiz-adv-x="300" 
d="M270 287h-240v108h240v-108z" />
    <glyph glyph-name="endash.case" unicode="&#xf6bb;" horiz-adv-x="593" 
d="M563 287h-533v108h533v-108z" />
    <glyph glyph-name="emdash.case" unicode="&#xf6bc;" horiz-adv-x="833" 
d="M803 287h-773v108h773v-108z" />
    <glyph glyph-name="periodcentered.case" unicode="&#xf6bd;" horiz-adv-x="257" 
d="M209 342c0 -43 -37 -80 -81 -80s-80 37 -80 80c0 44 36 81 80 81s81 -37 81 -81z" />
    <glyph glyph-name="bullet.case" unicode="&#xf6be;" horiz-adv-x="358" 
d="M299 341c0 -65 -53 -118 -119 -118s-119 53 -119 118c0 66 53 119 119 119s119 -53 119 -119z" />
    <glyph glyph-name="cent.case" unicode="&#xf6bf;" horiz-adv-x="499" 
d="M241 -9v92c-123 20 -209 117 -209 250c0 132 86 229 209 249v74h92v-73c72 -11 119 -47 146 -84l-83 -78c-16 23 -37 39 -63 47v-271c26 8 47 25 63 48l83 -78c-27 -37 -74 -74 -146 -85v-91h-92zM163 333c0 -63 30 -111 78 -131v261c-48 -20 -78 -67 -78 -130z" />
    <glyph glyph-name="commaaccent" unicode="&#xf6c3;" horiz-adv-x="255" 
d="M197 -138c0 -61 -34 -115 -83 -150l-44 35c27 16 57 50 63 80c-2 -2 -9 -3 -15 -3c-30 0 -53 23 -53 57s27 62 61 62c37 0 71 -29 71 -81z" />
    <glyph glyph-name="one.tnum" unicode="&#xf6dc;" horiz-adv-x="623" 
d="M451 0h-142v484l-111 -113l-81 85l210 211h124v-667z" />
    <glyph glyph-name="Lslash.smcp" unicode="&#xf6f9;" horiz-adv-x="480" 
d="M9 140v116l65 37v257h132v-180l81 47v-117l-81 -47v-138h242v-115h-374v177z" />
    <glyph glyph-name="OE.smcp" unicode="&#xf6fa;" horiz-adv-x="929" 
d="M887 0h-415v68c-41 -55 -100 -80 -169 -80c-160 0 -271 121 -271 287s111 287 271 287c67 0 128 -25 169 -79v67h415v-115h-282v-98h276v-115h-276v-107h282v-115zM472 199v153c-26 65 -82 94 -143 94c-100 0 -163 -74 -163 -171c0 -96 63 -171 163 -171
c63 0 117 31 143 95z" />
    <glyph glyph-name="Scaron.smcp" unicode="&#xf6fd;" horiz-adv-x="516" 
d="M256 -12c-105 0 -190 36 -238 83l60 102c38 -37 109 -72 182 -72c68 0 98 25 98 59c0 91 -322 24 -322 231c0 93 86 171 221 171c94 0 169 -30 224 -79l-62 -95c-42 39 -109 61 -164 61c-52 0 -84 -22 -84 -54c0 -81 322 -19 322 -230c0 -106 -83 -177 -237 -177z
M320 606h-114l-95 144h78l74 -89l70 89h78z" />
    <glyph glyph-name="Zcaron.smcp" unicode="&#xf6ff;" horiz-adv-x="524" 
d="M488 0h-452v96l263 338h-263v116h445v-96l-262 -338h269v-116zM318 606h-114l-95 144h78l74 -89l70 89h78z" />
    <glyph glyph-name="exclam.smcp" unicode="&#xf721;" horiz-adv-x="204" 
d="M172 550l-18 -345h-102l-19 345h139zM183 70c0 -44 -36 -81 -80 -81s-81 37 -81 81c0 43 37 80 81 80s80 -37 80 -80z" />
    <glyph glyph-name="dollar.onum" unicode="&#xf724;" horiz-adv-x="516" 
d="M217 -74v64c-87 7 -157 40 -199 81l60 102c30 -30 82 -58 139 -68v122c-87 20 -181 52 -181 164c0 83 69 154 181 168v69h91v-69c70 -9 128 -36 173 -76l-62 -95c-29 27 -70 46 -111 55v-108c87 -20 185 -54 185 -170c0 -94 -65 -160 -185 -174v-65h-91zM358 160
c0 22 -20 36 -50 45v-99c34 9 50 29 50 54zM171 395c0 -19 18 -31 46 -39v88c-29 -8 -46 -26 -46 -49z" />
    <glyph glyph-name="ampersand.smcp" unicode="&#xf726;" horiz-adv-x="567" 
d="M561 0h-148c-14 12 -28 26 -42 40c-46 -32 -98 -51 -158 -51c-109 0 -192 57 -192 163c0 83 57 127 122 159c-22 40 -36 78 -36 116c0 77 71 135 166 135c83 0 154 -44 154 -120c0 -85 -69 -121 -139 -152c15 -19 31 -37 47 -54c16 -20 32 -38 47 -54c22 33 40 70 51 106
l93 -41c-22 -49 -48 -95 -79 -134c34 -35 69 -70 114 -113zM228 77c28 0 54 10 79 27c-23 24 -44 47 -60 67c-21 24 -40 47 -57 70c-29 -20 -48 -44 -48 -80c0 -48 37 -84 86 -84zM219 424c0 -21 9 -45 24 -70c47 21 84 44 84 83c0 27 -21 44 -49 44c-35 0 -59 -25 -59 -57z
" />
    <glyph glyph-name="zero.onum" unicode="&#xf730;" horiz-adv-x="620" 
d="M586 275c0 -150 -88 -287 -276 -287s-276 137 -276 287c0 151 88 287 276 287s276 -136 276 -287zM441 275c0 88 -43 161 -131 161s-131 -73 -131 -161s43 -161 131 -161s131 73 131 161z" />
    <glyph glyph-name="one.onum" unicode="&#xf731;" horiz-adv-x="411" 
d="M345 0h-142v367l-111 -113l-81 85l210 211h124v-550z" />
    <glyph glyph-name="two.onum" unicode="&#xf732;" horiz-adv-x="582" 
d="M520 0h-470v112c254 86 337 177 337 243c0 49 -44 81 -101 81c-69 0 -129 -26 -177 -77l-81 94c65 75 167 109 260 109c149 0 243 -71 243 -183c0 -104 -107 -206 -224 -254h213v-125z" />
    <glyph glyph-name="three.onum" unicode="&#xf733;" horiz-adv-x="579" 
d="M275 -129c-122 0 -214 47 -263 107l75 95c45 -48 118 -76 183 -76c81 0 126 35 126 85c0 53 -41 77 -134 77c-28 0 -73 -1 -83 -2v128c12 -1 58 -1 83 -1c74 0 124 22 124 71c0 53 -55 79 -124 79c-65 0 -123 -24 -170 -69l-71 89c54 61 138 106 255 106
c156 0 252 -70 252 -181c0 -84 -72 -139 -146 -152c68 -7 156 -60 156 -160c0 -115 -103 -196 -263 -196z" />
    <glyph glyph-name="four.onum" unicode="&#xf734;" horiz-adv-x="597" 
d="M572 27h-86v-144h-142v144h-319v113l265 410h196v-398h86v-125zM344 152v272l-180 -272h180z" />
    <glyph glyph-name="five.onum" unicode="&#xf735;" horiz-adv-x="608" 
d="M306 -129c-116 0 -200 38 -257 100l79 99c45 -47 107 -73 177 -73c79 0 124 45 124 99c0 59 -44 99 -120 99c-55 0 -100 -16 -140 -54l-99 27v382h458v-125h-316v-163c32 32 86 56 147 56c113 0 214 -81 214 -216c0 -141 -106 -231 -267 -231z" />
    <glyph glyph-name="six.onum" unicode="&#xf736;" horiz-adv-x="608" 
d="M322 -12c-203 0 -288 156 -288 344c0 202 114 345 311 345c81 0 149 -27 197 -69l-64 -109c-36 34 -74 52 -133 52c-98 0 -167 -83 -167 -189c0 -5 0 -9 1 -14c31 45 98 86 171 86c120 0 228 -75 228 -217c0 -130 -104 -229 -256 -229zM314 114c77 0 119 52 119 98
c0 70 -60 100 -123 100c-50 0 -99 -23 -131 -63c6 -64 42 -135 135 -135z" />
    <glyph glyph-name="seven.onum" unicode="&#xf737;" horiz-adv-x="545" 
d="M277 -117h-156l239 542h-336v125h501v-99z" />
    <glyph glyph-name="eight.onum" unicode="&#xf738;" horiz-adv-x="606" 
d="M303 -12c-140 0 -268 61 -268 185c0 81 63 143 143 171c-74 26 -132 74 -132 157c0 126 133 176 257 176c123 0 257 -50 257 -176c0 -83 -59 -131 -132 -157c79 -28 143 -90 143 -171c0 -124 -128 -185 -268 -185zM303 400c41 7 112 28 112 77c0 47 -47 74 -112 74
c-66 0 -113 -27 -113 -74c0 -49 72 -70 113 -77zM303 114c68 0 124 31 124 79c0 55 -83 81 -124 87c-42 -6 -124 -32 -124 -87c0 -48 54 -79 124 -79z" />
    <glyph glyph-name="nine.onum" unicode="&#xf739;" horiz-adv-x="608" 
d="M263 -128c-81 0 -149 27 -196 69l63 109c36 -34 74 -52 133 -52c110 0 167 93 167 188v15c-32 -45 -99 -86 -172 -86c-120 0 -227 75 -227 217c0 130 103 229 255 229c203 0 288 -156 288 -344c0 -202 -114 -345 -311 -345zM298 237c51 0 99 23 131 63
c-6 64 -42 135 -135 135c-77 0 -119 -52 -119 -98c0 -70 61 -100 123 -100z" />
    <glyph glyph-name="question.smcp" unicode="&#xf73f;" horiz-adv-x="396" 
d="M381 437c0 -115 -144 -129 -144 -186c0 -13 5 -24 18 -34l-101 -28c-20 20 -27 47 -27 65c0 89 124 102 124 154c0 25 -22 44 -66 44c-51 0 -90 -21 -118 -53l-62 80c47 53 117 82 193 82c113 0 183 -55 183 -124zM277 70c0 -44 -37 -81 -81 -81s-81 37 -81 81
s37 81 81 81s81 -37 81 -81z" />
    <glyph glyph-name="A.smcp" unicode="&#xf761;" horiz-adv-x="597" 
d="M218 550h161l223 -550h-148l-36 91h-239l-35 -91h-149zM380 206l-81 210l-82 -210h163z" />
    <glyph glyph-name="B.smcp" unicode="&#xf762;" horiz-adv-x="586" 
d="M379 0h-316v550h307c112 0 169 -67 169 -141c0 -65 -42 -111 -94 -125c61 -14 106 -68 106 -134c0 -83 -59 -150 -172 -150zM354 115c37 0 62 20 62 53c0 30 -23 54 -62 54h-159v-107h159zM349 338c34 0 56 20 56 48c0 30 -22 49 -56 49h-154v-97h154z" />
    <glyph glyph-name="C.smcp" unicode="&#xf763;" horiz-adv-x="585" 
d="M332 -12c-172 0 -300 118 -300 287c0 170 128 287 300 287c118 0 196 -64 237 -140l-110 -53c-23 45 -71 77 -127 77c-96 0 -166 -73 -166 -171c0 -97 70 -171 166 -171c56 0 105 32 127 77l111 -52c-42 -77 -120 -141 -238 -141z" />
    <glyph glyph-name="D.smcp" unicode="&#xf764;" horiz-adv-x="626" 
d="M294 0h-231v550h231c182 0 300 -109 300 -275s-118 -275 -300 -275zM294 115c109 0 166 73 166 160c0 89 -51 160 -166 160h-99v-320h99z" />
    <glyph glyph-name="E.smcp" unicode="&#xf765;" horiz-adv-x="520" 
d="M478 0h-415v550h415v-115h-283v-98h277v-115h-277v-107h283v-115z" />
    <glyph glyph-name="F.smcp" unicode="&#xf766;" horiz-adv-x="509" 
d="M195 0h-132v550h415v-115h-283v-98h277v-115h-277v-222z" />
    <glyph glyph-name="G.smcp" unicode="&#xf767;" horiz-adv-x="616" 
d="M334 -12c-170 0 -302 114 -302 287c0 174 132 287 302 287c108 0 186 -55 229 -118l-107 -62c-26 36 -69 63 -122 63c-98 0 -167 -71 -167 -170c0 -98 69 -171 167 -171c49 0 86 20 108 39v58h-131v109h263v-217c-60 -64 -142 -105 -240 -105z" />
    <glyph glyph-name="H.smcp" unicode="&#xf768;" horiz-adv-x="651" 
d="M588 0h-132v224h-261v-224h-132v550h132v-211h261v211h132v-550z" />
    <glyph glyph-name="I.smcp" unicode="&#xf769;" horiz-adv-x="258" 
d="M195 0h-132v550h132v-550z" />
    <glyph glyph-name="J.smcp" unicode="&#xf76a;" horiz-adv-x="433" 
d="M157 -12c-57 0 -112 19 -153 59l53 100c22 -24 52 -43 90 -43c55 0 90 34 90 87v359h133v-370c0 -132 -86 -192 -213 -192z" />
    <glyph glyph-name="K.smcp" unicode="&#xf76b;" horiz-adv-x="566" 
d="M565 0h-160l-170 215l-40 -46v-169h-132v550h132v-233l195 233h160l-230 -258z" />
    <glyph glyph-name="L.smcp" unicode="&#xf76c;" horiz-adv-x="469" 
d="M437 0h-374v550h132v-435h242v-115z" />
    <glyph glyph-name="M.smcp" unicode="&#xf76d;" horiz-adv-x="757" 
d="M694 0h-132v372l-153 -372h-61l-153 372v-372h-132v550h176l139 -342l139 342h177v-550z" />
    <glyph glyph-name="N.smcp" unicode="&#xf76e;" horiz-adv-x="649" 
d="M586 0h-135l-256 345v-345h-132v550h142l249 -332v332h132v-550z" />
    <glyph glyph-name="O.smcp" unicode="&#xf76f;" horiz-adv-x="655" 
d="M327 -12c-175 0 -295 122 -295 287c0 166 120 287 295 287c174 0 296 -121 296 -287c0 -165 -122 -287 -296 -287zM327 104c98 0 161 75 161 171c0 97 -63 171 -161 171s-161 -74 -161 -171c0 -96 63 -171 161 -171z" />
    <glyph glyph-name="P.smcp" unicode="&#xf770;" horiz-adv-x="554" 
d="M195 0h-132v550h278c124 0 193 -83 193 -180c0 -98 -64 -181 -193 -181h-146v-189zM325 304c48 0 74 27 74 66c0 38 -27 65 -74 65h-130v-131h130z" />
    <glyph glyph-name="Q.smcp" unicode="&#xf771;" horiz-adv-x="655" 
d="M327 -12c-175 0 -295 122 -295 287c0 166 120 287 295 287c174 0 296 -121 296 -287c0 -79 -28 -148 -76 -198l41 -47l-79 -64l-44 51c-41 -18 -87 -29 -138 -29zM327 104c20 0 39 3 56 9l-55 64l78 64l55 -65c17 28 27 62 27 99c0 97 -63 171 -161 171
s-161 -74 -161 -171c0 -96 63 -171 161 -171z" />
    <glyph glyph-name="R.smcp" unicode="&#xf772;" horiz-adv-x="574" 
d="M539 0h-151l-109 189h-84v-189h-132v550h278c122 0 193 -81 193 -180c0 -100 -63 -155 -126 -168zM325 304c48 0 75 27 75 66c0 38 -28 65 -75 65h-130v-131h130z" />
    <glyph glyph-name="S.smcp" unicode="&#xf773;" horiz-adv-x="516" 
d="M256 -12c-105 0 -190 36 -238 83l60 102c38 -37 109 -72 182 -72c68 0 98 25 98 59c0 91 -322 24 -322 231c0 93 86 171 221 171c94 0 169 -30 224 -79l-62 -95c-42 39 -109 61 -164 61c-52 0 -84 -22 -84 -54c0 -81 322 -19 322 -230c0 -106 -83 -177 -237 -177z" />
    <glyph glyph-name="T.smcp" unicode="&#xf774;" horiz-adv-x="486" 
d="M309 0h-132v435h-156v115h445v-115h-157v-435z" />
    <glyph glyph-name="U.smcp" unicode="&#xf775;" horiz-adv-x="646" 
d="M323 -12c-175 0 -260 94 -260 230v332h133v-320c0 -75 45 -126 127 -126c81 0 127 51 127 126v320h133v-331c0 -137 -84 -231 -260 -231z" />
    <glyph glyph-name="V.smcp" unicode="&#xf776;" horiz-adv-x="597" 
d="M379 0h-161l-223 550h150l154 -407l155 407h148z" />
    <glyph glyph-name="W.smcp" unicode="&#xf777;" horiz-adv-x="797" 
d="M633 0h-138l-97 358l-95 -358h-138l-166 550h148l95 -376l105 376h103l105 -377l96 377h147z" />
    <glyph glyph-name="X.smcp" unicode="&#xf778;" horiz-adv-x="584" 
d="M588 0h-155l-141 194l-141 -194h-155l209 282l-196 268h155l128 -180l127 180h156l-196 -267z" />
    <glyph glyph-name="Y.smcp" unicode="&#xf779;" horiz-adv-x="565" 
d="M349 0h-131v226l-223 324h149l140 -212l137 212h149l-221 -324v-226z" />
    <glyph glyph-name="Z.smcp" unicode="&#xf77a;" horiz-adv-x="524" 
d="M488 0h-452v96l263 338h-263v116h445v-96l-262 -338h269v-116z" />
    <glyph glyph-name="exclamdown.smcp" unicode="&#xf7a1;" horiz-adv-x="204" 
d="M32 0l18 345h102l19 -345h-139zM21 480c0 44 36 81 80 81s81 -37 81 -81c0 -43 -37 -80 -81 -80s-80 37 -80 80z" />
    <glyph glyph-name="questiondown.smcp" unicode="&#xf7b8;" horiz-adv-x="396" 
d="M15 113c0 115 144 129 144 186c0 13 -5 24 -18 34l101 28c20 -20 27 -47 27 -65c0 -89 -124 -102 -124 -154c0 -25 22 -44 66 -44c51 0 90 21 118 53l62 -80c-47 -53 -117 -82 -193 -82c-113 0 -183 55 -183 124zM119 480c0 44 37 81 81 81s81 -37 81 -81
s-37 -81 -81 -81s-81 37 -81 81z" />
    <glyph glyph-name="Agrave.smcp" unicode="&#xf7e0;" horiz-adv-x="597" 
d="M218 550h161l223 -550h-148l-36 91h-239l-35 -91h-149zM380 206l-81 210l-82 -210h163zM382 606h-89l-162 144h117z" />
    <glyph glyph-name="Aacute.smcp" unicode="&#xf7e1;" horiz-adv-x="597" 
d="M218 550h161l223 -550h-148l-36 91h-239l-35 -91h-149zM380 206l-81 210l-82 -210h163zM469 750l-162 -144h-89l134 144h117z" />
    <glyph glyph-name="Acircumflex.smcp" unicode="&#xf7e2;" horiz-adv-x="597" 
d="M218 550h161l223 -550h-148l-36 91h-239l-35 -91h-149zM380 206l-81 210l-82 -210h163zM450 606h-78l-73 89l-71 -89h-78l92 144h114z" />
    <glyph glyph-name="Atilde.smcp" unicode="&#xf7e3;" horiz-adv-x="597" 
d="M218 550h161l223 -550h-148l-36 91h-239l-35 -91h-149zM380 206l-81 210l-82 -210h163zM356 604c-68 0 -79 68 -117 68c-20 0 -36 -19 -36 -62h-67c0 85 38 134 108 134c67 0 78 -67 116 -67c20 0 36 19 36 61h67c0 -85 -37 -134 -107 -134z" />
    <glyph glyph-name="Adieresis.smcp" unicode="&#xf7e4;" horiz-adv-x="597" 
d="M218 550h161l223 -550h-148l-36 91h-239l-35 -91h-149zM380 206l-81 210l-82 -210h163zM472 674c0 -38 -30 -68 -68 -68c-37 0 -68 30 -68 68s31 68 68 68c38 0 68 -30 68 -68zM261 674c0 -38 -30 -68 -68 -68s-68 30 -68 68s30 68 68 68s68 -30 68 -68z" />
    <glyph glyph-name="Aring.smcp" unicode="&#xf7e5;" horiz-adv-x="597" 
d="M218 550h161l223 -550h-148l-36 91h-239l-35 -91h-149zM380 206l-81 210l-82 -210h163zM299 598c-57 0 -105 48 -105 105c0 58 48 105 105 105c58 0 104 -47 104 -105c0 -57 -46 -105 -104 -105zM299 656c26 0 46 21 46 47s-20 47 -46 47c-25 0 -47 -21 -47 -47
s22 -47 47 -47z" />
    <glyph glyph-name="AE.smcp" unicode="&#xf7e6;" horiz-adv-x="845" 
d="M803 0h-415v91h-191l-54 -91h-149l342 550h467v-115h-283v-98h277v-115h-277v-107h283v-115zM388 206v210l-128 -210h128z" />
    <glyph glyph-name="Ccedilla.smcp" unicode="&#xf7e7;" horiz-adv-x="585" 
d="M330 -195c-48 0 -89 14 -110 31l25 51c25 -19 54 -29 82 -29c26 0 51 11 51 33c0 16 -10 26 -29 26c-13 0 -24 -6 -32 -14l-46 26l22 61c-152 16 -261 129 -261 285c0 170 128 287 300 287c118 0 196 -64 237 -140l-110 -53c-23 45 -71 77 -127 77
c-96 0 -166 -73 -166 -171c0 -97 70 -171 166 -171c56 0 105 32 127 77l111 -52c-39 -72 -110 -132 -215 -140l-16 -40c10 7 22 10 35 10c37 0 67 -28 67 -70c0 -53 -50 -84 -111 -84z" />
    <glyph glyph-name="Egrave.smcp" unicode="&#xf7e8;" horiz-adv-x="520" 
d="M478 0h-415v550h415v-115h-283v-98h277v-115h-277v-107h283v-115zM354 606h-89l-162 144h117z" />
    <glyph glyph-name="Eacute.smcp" unicode="&#xf7e9;" horiz-adv-x="520" 
d="M478 0h-415v550h415v-115h-283v-98h277v-115h-277v-107h283v-115zM442 750l-162 -144h-89l134 144h117z" />
    <glyph glyph-name="Ecircumflex.smcp" unicode="&#xf7ea;" horiz-adv-x="520" 
d="M478 0h-415v550h415v-115h-283v-98h277v-115h-277v-107h283v-115zM423 606h-78l-73 89l-71 -89h-78l92 144h114z" />
    <glyph glyph-name="Edieresis.smcp" unicode="&#xf7eb;" horiz-adv-x="520" 
d="M478 0h-415v550h415v-115h-283v-98h277v-115h-277v-107h283v-115zM444 674c0 -38 -30 -68 -68 -68c-37 0 -68 30 -68 68s31 68 68 68c38 0 68 -30 68 -68zM233 674c0 -38 -30 -68 -68 -68s-68 30 -68 68s30 68 68 68s68 -30 68 -68z" />
    <glyph glyph-name="Igrave.smcp" unicode="&#xf7ec;" horiz-adv-x="253" 
d="M195 0h-132v550h132v-550zM209 606h-89l-162 144h117z" />
    <glyph glyph-name="Iacute.smcp" unicode="&#xf7ed;" horiz-adv-x="253" 
d="M195 0h-132v550h132v-550zM297 750l-162 -144h-89l134 144h117z" />
    <glyph glyph-name="Icircumflex.smcp" unicode="&#xf7ee;" horiz-adv-x="253" 
d="M195 0h-132v550h132v-550zM278 606h-78l-73 89l-71 -89h-78l92 144h114z" />
    <glyph glyph-name="Idieresis.smcp" unicode="&#xf7ef;" horiz-adv-x="253" 
d="M195 0h-132v550h132v-550zM301 674c0 -38 -30 -68 -68 -68c-37 0 -68 30 -68 68s31 68 68 68c38 0 68 -30 68 -68zM90 674c0 -38 -30 -68 -68 -68s-68 30 -68 68s30 68 68 68s68 -30 68 -68z" />
    <glyph glyph-name="Eth.smcp" unicode="&#xf7f0;" horiz-adv-x="635" 
d="M294 0h-231v232h-54v87h54v231h231c182 0 300 -109 300 -275s-118 -275 -300 -275zM309 232h-114v-117h99c109 0 166 73 166 160c0 89 -51 160 -166 160h-99v-116h114v-87z" />
    <glyph glyph-name="Ntilde.smcp" unicode="&#xf7f1;" horiz-adv-x="649" 
d="M586 0h-135l-256 345v-345h-132v550h142l249 -332v332h132v-550zM381 604c-68 0 -79 68 -117 68c-20 0 -36 -19 -36 -62h-67c0 85 38 134 108 134c67 0 78 -67 116 -67c20 0 36 19 36 61h67c0 -85 -37 -134 -107 -134z" />
    <glyph glyph-name="Ograve.smcp" unicode="&#xf7f2;" horiz-adv-x="655" 
d="M327 -12c-175 0 -295 122 -295 287c0 166 120 287 295 287c174 0 296 -121 296 -287c0 -165 -122 -287 -296 -287zM327 104c98 0 161 75 161 171c0 97 -63 171 -161 171s-161 -74 -161 -171c0 -96 63 -171 161 -171zM410 606h-89l-162 144h117z" />
    <glyph glyph-name="Oacute.smcp" unicode="&#xf7f3;" horiz-adv-x="655" 
d="M327 -12c-175 0 -295 122 -295 287c0 166 120 287 295 287c174 0 296 -121 296 -287c0 -165 -122 -287 -296 -287zM327 104c98 0 161 75 161 171c0 97 -63 171 -161 171s-161 -74 -161 -171c0 -96 63 -171 161 -171zM499 750l-162 -144h-89l134 144h117z" />
    <glyph glyph-name="Ocircumflex.smcp" unicode="&#xf7f4;" horiz-adv-x="655" 
d="M327 -12c-175 0 -295 122 -295 287c0 166 120 287 295 287c174 0 296 -121 296 -287c0 -165 -122 -287 -296 -287zM327 104c98 0 161 75 161 171c0 97 -63 171 -161 171s-161 -74 -161 -171c0 -96 63 -171 161 -171zM479 606h-78l-73 89l-71 -89h-78l92 144h114z" />
    <glyph glyph-name="Otilde.smcp" unicode="&#xf7f5;" horiz-adv-x="655" 
d="M327 -12c-175 0 -295 122 -295 287c0 166 120 287 295 287c174 0 296 -121 296 -287c0 -165 -122 -287 -296 -287zM327 104c98 0 161 75 161 171c0 97 -63 171 -161 171s-161 -74 -161 -171c0 -96 63 -171 161 -171zM387 604c-68 0 -79 68 -117 68c-20 0 -36 -19 -36 -62
h-67c0 85 38 134 108 134c67 0 78 -67 116 -67c20 0 36 19 36 61h67c0 -85 -37 -134 -107 -134z" />
    <glyph glyph-name="Odieresis.smcp" unicode="&#xf7f6;" horiz-adv-x="655" 
d="M327 -12c-175 0 -295 122 -295 287c0 166 120 287 295 287c174 0 296 -121 296 -287c0 -165 -122 -287 -296 -287zM327 104c98 0 161 75 161 171c0 97 -63 171 -161 171s-161 -74 -161 -171c0 -96 63 -171 161 -171zM503 674c0 -38 -30 -68 -68 -68c-37 0 -68 30 -68 68
s31 68 68 68c38 0 68 -30 68 -68zM292 674c0 -38 -30 -68 -68 -68s-68 30 -68 68s30 68 68 68s68 -30 68 -68z" />
    <glyph glyph-name="Oslash.smcp" unicode="&#xf7f8;" horiz-adv-x="655" 
d="M327 -12c-56 0 -107 12 -149 35l-18 -23h-102l55 70c-51 51 -81 123 -81 205c0 166 120 287 295 287c55 0 104 -12 147 -34l17 22h102l-54 -68c53 -51 84 -124 84 -207c0 -165 -122 -287 -296 -287zM327 104c98 0 161 75 161 171c0 39 -11 75 -30 104l-204 -259
c21 -10 46 -16 73 -16zM166 275c0 -39 10 -74 28 -102l203 258c-20 10 -44 15 -70 15c-98 0 -161 -74 -161 -171z" />
    <glyph glyph-name="Ugrave.smcp" unicode="&#xf7f9;" horiz-adv-x="646" 
d="M323 -12c-175 0 -260 94 -260 230v332h133v-320c0 -75 45 -126 127 -126c81 0 127 51 127 126v320h133v-331c0 -137 -84 -231 -260 -231zM405 606h-89l-162 144h117z" />
    <glyph glyph-name="Uacute.smcp" unicode="&#xf7fa;" horiz-adv-x="646" 
d="M323 -12c-175 0 -260 94 -260 230v332h133v-320c0 -75 45 -126 127 -126c81 0 127 51 127 126v320h133v-331c0 -137 -84 -231 -260 -231zM494 750l-162 -144h-89l134 144h117z" />
    <glyph glyph-name="Ucircumflex.smcp" unicode="&#xf7fb;" horiz-adv-x="646" 
d="M323 -12c-175 0 -260 94 -260 230v332h133v-320c0 -75 45 -126 127 -126c81 0 127 51 127 126v320h133v-331c0 -137 -84 -231 -260 -231zM474 606h-78l-73 89l-71 -89h-78l92 144h114z" />
    <glyph glyph-name="Udieresis.smcp" unicode="&#xf7fc;" horiz-adv-x="646" 
d="M323 -12c-175 0 -260 94 -260 230v332h133v-320c0 -75 45 -126 127 -126c81 0 127 51 127 126v320h133v-331c0 -137 -84 -231 -260 -231zM497 674c0 -38 -30 -68 -68 -68c-37 0 -68 30 -68 68s31 68 68 68c38 0 68 -30 68 -68zM286 674c0 -38 -30 -68 -68 -68
s-68 30 -68 68s30 68 68 68s68 -30 68 -68z" />
    <glyph glyph-name="Yacute.smcp" unicode="&#xf7fd;" horiz-adv-x="565" 
d="M349 0h-131v226l-223 324h149l140 -212l137 212h149l-221 -324v-226zM454 750l-162 -144h-89l134 144h117z" />
    <glyph glyph-name="Thorn.smcp" unicode="&#xf7fe;" horiz-adv-x="554" 
d="M195 0h-132v550h132v-81h146c124 0 193 -84 193 -181c0 -98 -64 -181 -193 -181h-146v-107zM325 222c48 0 74 28 74 66s-26 66 -74 66h-130v-132h130z" />
    <glyph glyph-name="Ydieresis.smcp" unicode="&#xf7ff;" horiz-adv-x="565" 
d="M349 0h-131v226l-223 324h149l140 -212l137 212h149l-221 -324v-226zM458 674c0 -38 -30 -68 -68 -68c-37 0 -68 30 -68 68s31 68 68 68c38 0 68 -30 68 -68zM247 674c0 -38 -30 -68 -68 -68s-68 30 -68 68s30 68 68 68s68 -30 68 -68z" />
    </font>
</defs>
</svg>
